img image001 image001 image001 image001 image001 image001 image001 image001 image001 image001 image001 image001 image001 image001 image001 image001

Planets Sun Sun Sun
Статистика раздачи
Автор: Снежана | Размер: 701.89 МБ | Добавлен: 24 июл 2013
Раздают: 12    Качают: 2
Скачать торрент
Скачать торрент
Описание торрента

СообщениеДобавлено: 24 июл 2013 

#77

Информация о фильме
Название: Откровения пирамид
Оригинальное название: La revelation des pyramides
Год выхода: 2010
Жанр: Документальный, научно-познавательный, естествознание, исследование, история, культура
Режиссер: Патрис Пуйар

О фильме:
Многие века тайны Великих Пирамид в Гизе будоражат умы людей. Сотни тысяч туристов со всего мира каждый год отправляются в Египет, чтобы увидеть Великого Сфинкса и Пирамиды Хеопса, Хефрена и Микерина. Путь создателей фильма пролег от Китая до Перу, от Египта до Мексики и от Ближнего Востока до острова Пасхи - по древнейшим, красивейшим и наиболее таинственным местам нашей планеты. Создатели этого документального блокбастера предлагают совершенно новую и непривычную для приверженцев традиционного академического подхода точку зрения на то, что являют собой Великие Пирамиды на самом деле.

Страна: Франция
Студия: Ekwanim Productions, Kerguelen Productions, Gerard Fournerie, Felix Altmann Productions
Продолжительность: 01:41:44
Перевод: Профессиональный многоголосый

Файл
Кодек: XviD
Качество: DVDRip
Видео: 640x352 (1.82:1), 25 fps, ~697 kbps avg, 0.12 bit/pixel
Звук: 48 kHz, AC3 Dolby Digital, 3/2 (L,C,R,l,r) ch, ~256 kbps

General
Complete name : E:фильмыOtkrovenija.Piramid.2009.XviD.DVDRip.avi
Format : AVI
Format/Info : Audio Video Interleave
File size : 702 MiB
Duration : 1h 41mn
Overall bit rate : 965 Kbps
Movie name : Otkrovenija.Piramid.2009.DVD-9.Title3.DVDRip
Writing application : Lavf52.33.0
Original source form/Name : Otkrovenija.Piramid.2009.DVD-9

Video
ID : 0
Format : MPEG-4 Visual
Format profile : Simple@L3
Format settings, BVOP : No
Format settings, QPel : No
Format settings, GMC : No warppoints
Format settings, Matrix : Default (H.263)
Codec ID : XVID
Codec ID/Hint : XviD
Duration : 1h 41mn
Bit rate : 698 Kbps
Width : 640 pixels
Height : 352 pixels
Display aspect ratio : 16:9
Frame rate : 25.000 fps
Color space : YUV
Chroma subsampling : 4:2:0
Bit depth : 8 bits
Scan type : Progressive
Compression mode : Lossy
Bits/(Pixel*Frame) : 0.124
Stream size : 508 MiB (72%)
Writing library : XviD 1.2.1 (UTC 2008-12-04)

Audio
ID : 1
Format : AC-3
Format/Info : Audio Coding 3
Mode extension : CM (complete main)
Codec ID : 2000
Duration : 1h 41mn
Bit rate mode : Constant
Bit rate : 256 Kbps
Channel(s) : 5 channels
Channel positions : Front: L C R, Side: L R
Sampling rate : 48.0 KHz
Bit depth : 16 bits
Compression mode : Lossy
Stream size : 186 MiB (27%)
Alignment : Aligned on interleaves
Interleave, duration : 32 ms (0.80 video frame)
Interleave, preload duration : 32 ms


Релиз от:



   Похожие торренты   Торрент   Размер 
В этой теме нет новых непрочитанных сообщений. Откровения пирамид / La revelation des pyramides (2009) BDRip 1080p от NNNB

40 | 4

10.24 ГБ

В этой теме нет новых непрочитанных сообщений. Путь откровения 3 / The Black Rider: Revelation Road (2014) DVDRip | L1

399 | 18

1.46 ГБ

В этой теме нет новых непрочитанных сообщений. Путь откровения 2: Море стекла и огня / Revelation Road 2: The Sea of Glass and Fire (2013) DVDRip-AVC | L1

74 | 5

1.11 ГБ

В этой теме нет новых непрочитанных сообщений. Лелик и Болик / Bolek i Lolek (1964-1989) DVDRip | КПК от Kino@rena

9 | 55

4.47 ГБ

В этой теме нет новых непрочитанных сообщений. Путь откровения: Начало конца / Revelation Road: The Beginning of the End (2013) BDRip | L2

95 | 10

1.26 ГБ

В этой теме нет новых непрочитанных сообщений. Откровения / Revelations [S01] (2005) DVDRip | P

23 | 5

4.38 ГБ

В этой теме нет новых непрочитанных сообщений. Билл Хикс - Откровения / Bill Hicks - Revelations (1993) DVDRip от Brazzass

2 | 3

588.12 МБ




Вы не можете начинать темы
Вы не можете отвечать на сообщения
Вы не можете редактировать свои сообщения
Вы не можете удалять свои сообщения
Вы не можете добавлять вложения

Перейти:  
 Вход
ppkBB3cker v.2 © 2008-2014 @ PPK
[ Time : 0.021s | 19 Queries | GZIP : Off ]

cron