img image001 image001 image001 image001 image001 image001 image001 image001 image001 image001 image001 image001 image001 image001 image001

Planets Sun Sun Sun
Статистика раздачи
Автор: Снежана | Размер: 645.33 МБ | Добавлен: 25 июл 2013
Раздают: 4    Качают: 3
Скачать торрент
Скачать торрент
Описание торрента

СообщениеДобавлено: 25 июл 2013 

National Geographic: Острова Фиджи / Islands Fiji



Страна: США
Жанр: Документальный
Год выпуска: 2011
Продолжительность: 00:45:04
Перевод: Профессиональный (одноголосый)
Cубтитры: нет




Производство: National Geographic Channel


Описание: Далекие, прекрасные, загадочные, уникальные острова, словно закрытые миры жизнь в этих удаленных уголках развивалась по своему пути, но в современном взаимосвязанном мире острова также являются частью глобального общества, которое меняется к лучшему или худшему. Мы расскажем вам о жизни на островах, вы обнаружите, что независимо от, насколько далеко люди живут от большой земли, насколько особенная у них история и насколько они гордятся своей независимостью. Судьбу островов не отделить от судьбы человечества в целом так или иначе на эти берега приходят глобальные перемены все, что здесь происходит, имеет значение для каждого из нас. В этом выпуске речь пойдет об островах Фиджи.





Качество видео: HDTVRip
Формат видео: AVI


Видео: XviD, 720x400 (16:9), 1800 Кбит/сек, 25 fps
Аудио: AC3, 192 Кбит/сек, 48 КГц, 2 ch








Format : AVI
Format/Info : Audio Video Interleave
File size : 645 MiB
Duration : 45mn 4s
Overall bit rate : 2 002 Kbps
Writing application : VirtualDubMod 1.5.10.2 (build 2540/release)
Writing library : VirtualDubMod build 2540/release
Video
ID : 0
Format : MPEG-4 Visual
Format profile : Advanced Simple@L5
Format settings, BVOP : 2
Format settings, QPel : No
Format settings, GMC : No warppoints
Format settings, Matrix : Default (H.263)
Codec ID : XVID
Codec ID/Hint : XviD
Duration : 45mn 4s
Bit rate : 1 800 Kbps
Width : 720 pixels
Height : 400 pixels
Display aspect ratio : 16:9
Frame rate : 25.000 fps
Color space : YUV
Chroma subsampling : 4:2:0
Bit depth : 8 bits
Scan type : Progressive
Compression mode : Lossy
Bits/(Pixel*Frame) : 0.250
Stream size : 580 MiB (90%)
Writing library : XviD 1.2.0.dev47 (UTC 2006-11-01)
Audio
ID : 1
Format : AC-3
Format/Info : Audio Coding 3
Mode extension : CM (complete main)
Codec ID : 2000
Duration : 45mn 4s
Bit rate mode : Constant
Bit rate : 192 Kbps
Channel(s) : 2 channels
Channel positions : Front: L R
Sampling rate : 48.0 KHz
Bit depth : 16 bits
Compression mode : Lossy
Stream size : 61.9 MiB (10%)
Alignment : Split accross interleaves
Interleave, duration : 40 ms (1.00 video frame)
Interleave, preload duration : 500 ms



   Похожие торренты   Торрент   Размер 
В этой теме нет новых непрочитанных сообщений. National Geographic. Медведи острова Страха / National Geographic. Bears of Fear Island ( 2011) HDTVRip от RG MixTorrent

2 | 2

566.55 МБ

В этой теме нет новых непрочитанных сообщений. National Geographic: Затмение острова Пасхи / National Geographic: Easter Island Eclipse (2010) HDTVRip 720p

1 | 3

1.26 ГБ

В этой теме нет новых непрочитанных сообщений. National Geographic: Коллекция живой природы: Ядовитый остров / Wildlife Collection: Venom Islands (2012) HDTVRip от -=HD-NET=-

137 | 39

700.64 МБ

В этой теме нет новых непрочитанных сообщений. National Geographic. Коллекция живой природы: Ядовитый остров / Wildlife Collection: Venom Islands (2012) HDTVRip от HitWay | D

49 | 7

552.95 МБ

В этой теме нет новых непрочитанных сообщений. National Geographic: Самые опасные акулы / National Geographic: World's Deadliest Sharks (2011) HDTVRip от R.G.RealMT | P1

5 | 3

790.21 МБ

В этой теме нет новых непрочитанных сообщений. National Geographic. Возвращение дымчатых леопардов / National Geographic. Return of the Clouded Leopards (2011) HDTVRip от ExKinoRay

16 | 5

699.79 МБ

В этой теме нет новых непрочитанных сообщений. National Geographic: Ночные охотники. Крокодилы / National Geographic: Nightstalkers. Crocodiles (2011) HDTVRip-AVC от SilverCinema

0 | 2

808.13 МБ




Вы не можете начинать темы
Вы не можете отвечать на сообщения
Вы не можете редактировать свои сообщения
Вы не можете удалять свои сообщения
Вы не можете добавлять вложения

Перейти:  
Для Мосгорсуда, Роскомнадзора и рекламодателей: mosgorsud-torrent[собачка]yandex.ru
 Вход
ppkBB3cker v.2 © 2008-2014 @ PPK
[ Time : 0.029s | 14 Queries | GZIP : Off ]

Торрент трекер RUTOR.IN, Не можете зайти на rutor.org? Какой новый адрес рутор? Какое зеркало рутор? Не работает rutor.org и зеркала? Тогда наш торрент специально для вас. Rutor.in неофициальное зеркало rutor. В случае если у Вас заблокирован rutor или вдруг Вы не можете на него зайти, то Вы без труда сможете скачать бесплатно и без рекламы последние новинки кино, игр, сериалов и прочего у нас, на Rutor.in. Не нужно использовать прокси, чтобы зайти на рутор, достаточно воспользоваться нашим ресурсом. Все новые фильмы, игры, сериалы, книги и музыка за 2013 и 2014 годы через торрент бесплатно. Скачивайте фильмы в хорошем качестве, игры для пк, xbox, playstation без регистрации. У нас вы найдете новые Зарубежные сериалы и Русские сериалы 2013, 2014, 2015 годов. Оставайтесь с нами, качайте любимые фильмы, игры, сериалы, книги и музыку.