img image001 image001 image001 image001 image001 image001 image001 image001 image001 image001 image001 image001 image001 image001 image001

Planets Sun Sun Sun
Статистика раздачи
Автор: Снежана | Размер: 1.1 ГБ | Добавлен: 24 июл 2013
Раздают: 2    Качают: 3
Скачать торрент
Скачать торрент
Описание торрента

СообщениеДобавлено: 24 июл 2013 

#77

Информация о фильме
Оригинальное название: Специальный проект. Мобильный приговор (Мобильная смерть)
Год выхода: 2012
Жанр: Документальный, познавательный, история, исследование
Режиссёры: Руслан Титов, Евгений Пешков

Описание: Мобильные телефоны опасней, чем курение и асбестовая пыль. Они влияют на работу нервной системы и способны вызывать злокачественные опухоли мозга. Если лидеры мировых держав и хозяева сотовых компаний не предпримут решительных шагов, то в ближайшие годы счет жертв опасных излучений пойдет на миллионы...

Доп. информация: Специальный проект телеканала РЕН. Эфир от 15.08.2012.

Выпущено: Россия / РЕН-ТВ
Продолжительность: 01:36:19
Перевод: Не требуется
Субтитры: нет

Файл
Качество: SATRip
Контейнер: AVI
Кодек: DivX / MP3
Видео: 1500 Кбит/с, 704x384, 25 Кадр/с
Аудио: 128 Кбит/с, 2 канала (Стерео)



General
Complete name : Spec.proekt.Mobilnyj.prigovor.2012.DivX.SATRip.avi
Format : AVI
Format/Info : Audio Video Interleave
File size : 1.10 GiB
Duration : 1h 36mn
Overall bit rate : 1 638 Kbps
Writing application : VirtualDubMod 1.5.10.3 (build 2550/release)
Writing library : VirtualDubMod build 2550/release

Video
ID : 0
Format : MPEG-4 Visual
Format profile : Simple@L3
Format settings, BVOP : No
Format settings, QPel : No
Format settings, GMC : No warppoints
Format settings, Matrix : Default (H.263)
Codec ID : DX50
Codec ID/Hint : DivX 5
Duration : 1h 36mn
Bit rate : 1 500 Kbps
Width : 704 pixels
Height : 384 pixels
Display aspect ratio : 16:9
Frame rate : 25.000 fps
Color space : YUV
Chroma subsampling : 4:2:0
Bit depth : 8 bits
Scan type : Progressive
Compression mode : Lossy
Bits/(Pixel*Frame) : 0.222
Stream size : 1.01 GiB (92%)
Writing library : XviD 1.2.1 (UTC 2008-12-04)

Audio
ID : 1
Format : MPEG Audio
Format version : Version 1
Format profile : Layer 3
Mode : Joint stereo
Mode extension : MS Stereo
Codec ID : 55
Codec ID/Hint : MP3
Duration : 1h 36mn
Bit rate mode : Constant
Bit rate : 128 Kbps
Channel(s) : 2 channels
Sampling rate : 48.0 KHz
Compression mode : Lossy
Stream size : 88.2 MiB (8%)
Alignment : Split accross interleaves
Interleave, duration : 40 ms (1.00 video frame)
Interleave, preload duration : 500 ms
Writing library : LAME3.98.2




   Похожие торренты   Торрент   Размер 
В этой теме нет новых непрочитанных сообщений. Специальный проект. Фанаты [Эфир от 06.06] (2012) SATRip

1 | 10

1005.46 МБ

В этой теме нет новых непрочитанных сообщений. Специальный проект. Исчезнувшие цивилизации [эфир от 19.09] (2012) SATRip

19 | 5

1.09 ГБ

В этой теме нет новых непрочитанных сообщений. Специальный проект. Битва за нефть [эфир от 12.09] (2012) SATRip

4 | 2

1.01 ГБ

В этой теме нет новых непрочитанных сообщений. Специальный проект. Игры разума [эфир от 29.08] (2012) SATRip

28 | 4

1.1 ГБ

В этой теме нет новых непрочитанных сообщений. Специальный проект. Лунная гонка [эфир от 04.04] (2012) SATRip

17 | 3

1017.31 МБ

В этой теме нет новых непрочитанных сообщений. Специальный проект. Код Дарвина: Проклятье обезьян [01-02 из 02] (2012) SATRip

12 | 4

1011.23 МБ

В этой теме нет новых непрочитанных сообщений. Специальный проект - Приключения секса в XX веке [Эфир от 28.03] [01-02 из 02] (2012) SATRip

139 | 11

984.67 МБ




Вы не можете начинать темы
Вы не можете отвечать на сообщения
Вы не можете редактировать свои сообщения
Вы не можете удалять свои сообщения
Вы не можете добавлять вложения

Перейти:  
Для Мосгорсуда, Роскомнадзора и рекламодателей: mosgorsud-torrent[собачка]yandex.ru
 Вход
ppkBB3cker v.2 © 2008-2014 @ PPK
[ Time : 0.040s | 15 Queries | GZIP : Off ]

cron