img image001 image001 image001 image001 image001 image001 image001 image001 image001 image001 image001 image001 image001 image001 image001

Planets Sun Sun Sun
Статистика раздачи
Автор: Снежана | Размер: 2.97 ГБ | Добавлен: 25 июл 2013
Раздают: 12    Качают: 5
Скачать торрент
Скачать торрент
Описание торрента

СообщениеДобавлено: 25 июл 2013 

#77

Информация о фильме
Название: Независимая игра: Кино
Оригинальное название: Indie Game: The Movie
Год выхода: 2012
Жанр: Документальный
Режиссер: Лизанн Пажо, Джеймс Свирски
В ролях: Jonathan Blow,Phil Fish,Edmund McMillen,Tommy Refenes,Joe Drilling

О фильме:
Это документальное кино, рассказывающее истории четырех замечательных разработчиков и трёх не менее замечательных игр. Фильм расскажет как Эдмунд МакМиллен и Томми Рефенес делали и выпускали SUPER MEAT BOY. Как Фил Фиш показывал первый прототип Fez на выставке PAX EAST. А также поведает историю Джонатана Блоу, создателя великолепной BRAID. Как заверяют авторы, лейтмотивом всего фильма должна стать идея выражения собственной индивидуальности разработчика через создание игры.
General
Unique ID : 228819401444969811005300495786011810625 (0xAC2503827F03462DBDF556F2D8905B41)
Complete name : E:indieindiegame2.mkv
Format : Matroska
Format version : Version 2
File size : 2.97 GiB
Duration : 1h 43mn
Overall bit rate : 4 123 Kbps
Encoded date : UTC 2012-08-15 08:09:29
Writing application : mkvmerge v3.0.0 ('Hang up your Hang-Ups') built on Dec 12 2009 15:20:35
Writing library : libebml v0.7.9 + libmatroska v0.8.1

Video
ID : 1
Format : MPEG-4 Visual
Format profile : Advanced Simple@L5
Format settings, BVOP : No
Format settings, QPel : No
Format settings, GMC : No warppoints
Format settings, Matrix : Default (MPEG)
Codec ID : XVID
Codec ID/Hint : XviD
Duration : 1h 43mn
Bit rate : 3 912 Kbps
Width : 1 280 pixels
Height : 720 pixels
Display aspect ratio : 16:9
Frame rate : 23.976 fps
Color space : YUV
Chroma subsampling : 4:2:0
Bit depth : 8 bits
Scan type : Progressive
Compression mode : Lossy
Bits/(Pixel*Frame) : 0.177
Stream size : 2.82 GiB (95%)
Writing library : XviD 64
Default : Yes
Forced : No

Audio
ID : 2
Format : MPEG Audio
Format version : Version 1
Format profile : Layer 3
Mode : Joint stereo
Mode extension : MS Stereo
Codec ID : A_MPEG/L3
Codec ID/Hint : MP3
Duration : 1h 43mn
Bit rate mode : Constant
Bit rate : 128 Kbps
Channel(s) : 2 channels
Sampling rate : 48.0 KHz
Compression mode : Lossy
Stream size : 94.4 MiB (3%)
Default : Yes
Forced : No


Санденс, 2012 год, Гран-при в категории «Документальный фильм» (Программа «Мировое кино»)
Официальный сайт

Страна: КАНАДА
Студия: BlinkWorks Media
Продолжительность: 01:43:05
Перевод: Русская любительская многоголосая закадровая (Никита Пугач, Иван Потапов, Ева Шестакова)

Файл
Кодек: MKV
Качество: HD
Видео: Xvid 1280x720 23.976fps 3912 kbps
Звук: MP3 48000Hz stereo 128 kbps
Субтитры: Графически перерисованы английские надписи (Андрей Шапал)



Релиз от:



   Похожие торренты   Торрент   Размер 
В этой теме нет новых непрочитанных сообщений. Независимые Игры / Indie Game: The Movie (2012) HD | Sub

6 | 2

1.64 ГБ

В этой теме нет новых непрочитанных сообщений. Несмонтированный фильм / Кино есть кино / Rough Cut / A Movie is a Movie / Yeong-hwa-neun yeong-hwa-da (2008) DVDRip от Scarabey | L2

14 | 1

1.45 ГБ

В этой теме нет новых непрочитанных сообщений. Несмонтированный фильм / Кино есть кино / Rough Cut / A Movie is a Movie / Yeong-hwa-neun yeong-hwa-da (2008) DVDRip от Scarabey | L2

5 | 1

743.07 МБ

В этой теме нет новых непрочитанных сообщений. Злостный видеоигровой задрот: Кино / Angry Video Game Nerd: The Movie (2014) WEBRip | L

732 | 26

1.46 ГБ

В этой теме нет новых непрочитанных сообщений. Злостный видеоигровой задрот: Кино / Angry Video Game Nerd: The Movie (2014) WEBRip-AVC | L, L1

223 | 39

2.19 ГБ

В этой теме нет новых непрочитанных сообщений. Злостный видеоигровой задрот: Кино / Angry Video Game Nerd: The Movie (2014) WEBRip | L1

1244 | 57

1.37 ГБ

В этой теме нет новых непрочитанных сообщений. Злостный видеоигровой задрот: Кино / Angry Video Game Nerd: The Movie (2014) WEBRip 720p | L1

464 | 25

1.93 ГБ




Вы не можете начинать темы
Вы не можете отвечать на сообщения
Вы не можете редактировать свои сообщения
Вы не можете удалять свои сообщения
Вы не можете добавлять вложения

Перейти:  
Для Мосгорсуда, Роскомнадзора и рекламодателей: mosgorsud-torrent[собачка]yandex.ru
 Вход
ppkBB3cker v.2 © 2008-2014 @ PPK
[ Time : 0.038s | 14 Queries | GZIP : Off ]

Торрент трекер RUTOR.IN, Не можете зайти на rutor.org? Какой новый адрес рутор? Какое зеркало рутор? Не работает rutor.org и зеркала? Тогда наш торрент специально для вас. Rutor.in неофициальное зеркало rutor. В случае если у Вас заблокирован rutor или вдруг Вы не можете на него зайти, то Вы без труда сможете скачать бесплатно и без рекламы последние новинки кино, игр, сериалов и прочего у нас, на Rutor.in. Не нужно использовать прокси, чтобы зайти на рутор, достаточно воспользоваться нашим ресурсом. Все новые фильмы, игры, сериалы, книги и музыка за 2013 и 2014 годы через торрент бесплатно. Скачивайте фильмы в хорошем качестве, игры для пк, xbox, playstation без регистрации. У нас вы найдете новые Зарубежные сериалы и Русские сериалы 2013, 2014, 2015 годов. Оставайтесь с нами, качайте любимые фильмы, игры, сериалы, книги и музыку.