img image001 image001 image001 image001 image001 image001 image001 image001 image001 image001 image001 image001 image001 image001 image001

Planets Sun Sun Sun
Статистика раздачи
Автор: Снежана | Размер: 1.46 ГБ | Добавлен: 25 июл 2013
Раздают: 105    Качают: 6
Скачать торрент
Скачать торрент
Описание торрента

СообщениеДобавлено: 25 июл 2013 

#77
Год выпуска: 2009
Страна: Франция, Испания, Швейцария
Жанр: документальный, драма, семейный
Продолжительность: 01:43:43

Перевод: Профессиональный (полное дублирование) Олег Басилашвили
Cубтитры: русский
Оригинальная аудиодорожка: нет

Режиссер: Жак Перрен / Жак Клюзо

Описание: «Океаны» — масштабный проект Жака Перрена — создателя знаменитых «Птиц» и «Микрокосмоса». Фильм о безграничности и свободе подводного мира, репортаж из другого мира, чуждого человеку, но полного жизни. Создатели отнеслись к океану как к живому, разумному существу, и смогли передать это ощущение зрителям.
Как и предыдущие работы Перрена и его соавтора Жака Клюзо, «Океаны* перевернул понятие «документальный фильм о природе». В нём подводные жители становятся героями триллера и боевика, захватывающих погонь и комедий.
Фильм «Океаны» создавался в течение пяти лет, съемки велись в разных уголках планеты. Благодаря огромному для документального кино бюджету — 80 млн. долларов — для фильма были разработаны совершенно новые технологии для съёмки под водой.
Съёмочная группа множество раз обогнула земной шар: oт Аргентины до Японии, oт Калифорнии до Мозамбика, от Северного и до Южного полюса. О многом из того, что было снято, не подозревали даже океанологи-консультанты.
Фильм поразил воображение зарубежных зрителей и кинокритиков. Ощущения от просмотра «Океанов» сравнивают с американскими горками ИЛИ путешествием на другую планету...





Исходник: BDRemux 1080p
Качество: BDRip
Формат: MKV

Видео: 1024x422 (2.40:1), 23.976 fps, H264 ~ 1560 kbps avg, 0.151 bit/pixel
Аудио: 48 kHz, AC3 6 ch, 448 kbps
Формат субтитров: SoftSub (srt)
Общее
Полное имя : Okeany.2009Okeany.2009.BDRip-AVC_[youtracker]_AVP Studio.mkv
Формат : Matroska
Версия формата : Version 2
Размер файла : 1,46 Гбайт
Продолжительность : 1 ч. 43 м.
Общий поток : 2007 Кбит/сек
Название фильма : Okeany.2009.BDRip-AVC_[youtracker]_AVP Studio
Дата кодирования : UTC 2012-06-19 08:21:53
Программа кодирования : mkvmerge v5.6.0 ('Kenya Kane') built on May 27 2012 16:44:04
Библиотека кодирования : libebml v1.2.3 + libmatroska v1.3.0

Видео
Идентификатор : 1
Формат : AVC
Формат/Информация : Advanced Video Codec
Профиль формата : High@L4.1
Параметр CABAC формата : Да
Параметр ReFrames формата : 11 кадров
Идентификатор кодека : V_MPEG4/ISO/AVC
Продолжительность : 1 ч. 43 м.
Битрейт : 1560 Кбит/сек
Ширина : 1024 пикселя
Высота : 422 пикселя
Соотношение сторон : 2,40:1
Частота кадров : 23,976 кадра/сек
Цветовое пространство : YUV
Субдискретизация насыщенности : 4:2:0
Битовая глубина : 8 бит
Тип развёртки : Прогрессивная
Бит/(Пиксели*Кадры) : 0.151
Размер потока : 1,10 Гбайт (76%)
Заголовок : Источник BDRemux
Библиотека кодирования : x264 core 119 r2106 07efeb4
Настройки программы : cabac=1 / ref=11 / deblock=1:-2:-1 / analyse=0x3:0x113 / me=umh / subme=9 / psy=1 / psy_rd=1.00:0.10 / mixed_ref=1 / me_range=32 / chroma_me=1 / trellis=1 / 8x8dct=1 / cqm=0 / deadzone=21,11 / fast_pskip=0 / chroma_qp_offset=-3 / threads=3 / sliced_threads=0 / nr=0 / decimate=1 / interlaced=0 / bluray_compat=0 / constrained_intra=0 / bframes=10 / b_pyramid=2 / b_adapt=1 / b_bias=0 / direct=3 / weightb=1 / open_gop=0 / weightp=2 / keyint=240 / keyint_min=23 / scenecut=40 / intra_refresh=0 / rc_lookahead=60 / rc=2pass / mbtree=1 / bitrate=1560 / ratetol=1.0 / qcomp=0.60 / qpmin=0 / qpmax=69 / qpstep=4 / cplxblur=20.0 / qblur=0.5 / ip_ratio=1.40 / aq=1:1.00
Язык : Spanish
Default : Да
Forced : Нет

Аудио
Идентификатор : 2
Формат : AC-3
Формат/Информация : Audio Coding 3
Расширение режима : CM (complete main)
Идентификатор кодека : A_AC3
Продолжительность : 1 ч. 43 м.
Вид битрейта : Постоянный
Битрейт : 448 Кбит/сек
Каналы : 6 каналов
Расположение каналов : Front: L C R, Side: L R, LFE
Частота : 48,0 КГц
Битовая глубина : 16 бит
Метод сжатия : С потерями
Размер потока : 333 Мбайт (22%)
Заголовок : Источник BDRemux
Язык : Russian
Default : Да
Forced : Нет

Текст
Идентификатор : 3
Формат : UTF-8
Идентификатор кодека : S_TEXT/UTF8
Идентификатор кодека/Информация : UTF-8 Plain Text
Заголовок : Автор Капитан
Язык : Russian
Default : Нет
Forced : Нет

Меню
00:00:00.000 : ru:00:00:00.000000000
00:05:00.000 : :00:05:00.000000000
00:10:00.000 : :00:10:00.000000000
00:15:00.000 : :00:15:00.000000000
00:20:00.000 : :00:20:00.000000000
00:25:00.000 : :00:25:00.000000000
00:30:00.000 : :00:30:00.000000000
00:35:00.000 : :00:35:00.000000000
00:40:00.000 : :00:40:00.000000000
00:45:00.000 : :00:45:00.000000000
00:50:00.000 : :00:50:00.000000000
00:55:00.000 : :00:55:00.000000000
01:00:00.000 : :01:00:00.000000000
01:05:00.000 : :01:05:00.000000000
01:10:00.000 : :01:10:00.000000000
01:15:00.000 : :01:15:00.000000000
01:20:00.000 : :01:20:00.000000000
01:25:00.000 : :01:25:00.000000000
01:30:00.000 : :01:30:00.000000000
01:35:00.000 : :01:35:00.000000000
01:40:00.000 : :01:40:00.000000000




Раздача от:



   Похожие торренты   Торрент   Размер 
В этой теме нет новых непрочитанных сообщений. Океаны / Océans / Oceans (2009) HDRip от Youtracker

10 | 1

748.27 МБ

В этой теме нет новых непрочитанных сообщений. Океаны / Océans / Oceans (2009) DVD9 от Youtracker

17 | 3

7.43 ГБ

В этой теме нет новых непрочитанных сообщений. Океаны / Oceans (2009) BDRip 720p

108 | 16

4.35 ГБ

В этой теме нет новых непрочитанных сообщений. Океаны / Océans (2009) BDRip-AVC by Infineon

4 | 3

2.91 ГБ

В этой теме нет новых непрочитанных сообщений. Океаны / Oceans (2009) BDRip от HQCLUB

34 | 6

2.18 ГБ

В этой теме нет новых непрочитанных сообщений. Океаны / Oceans (2009) BDRip (1080p) - Andripan

26 | 4

9.37 ГБ

В этой теме нет новых непрочитанных сообщений. Океаны / Oceans (2009) DVD9

7 | 2

7.43 ГБ




Вы не можете начинать темы
Вы не можете отвечать на сообщения
Вы не можете редактировать свои сообщения
Вы не можете удалять свои сообщения
Вы не можете добавлять вложения

Перейти:  
Для Мосгорсуда, Роскомнадзора и рекламодателей: mosgorsud-torrent[собачка]yandex.ru
 Вход
ppkBB3cker v.2 © 2008-2014 @ PPK
[ Time : 0.028s | 16 Queries | GZIP : Off ]

Торрент трекер RUTOR.IN, Не можете зайти на rutor.org? Какой новый адрес рутор? Какое зеркало рутор? Не работает rutor.org и зеркала? Тогда наш торрент специально для вас. Rutor.in неофициальное зеркало rutor. В случае если у Вас заблокирован rutor или вдруг Вы не можете на него зайти, то Вы без труда сможете скачать бесплатно и без рекламы последние новинки кино, игр, сериалов и прочего у нас, на Rutor.in. Не нужно использовать прокси, чтобы зайти на рутор, достаточно воспользоваться нашим ресурсом. Все новые фильмы, игры, сериалы, книги и музыка за 2013 и 2014 годы через торрент бесплатно. Скачивайте фильмы в хорошем качестве, игры для пк, xbox, playstation без регистрации. У нас вы найдете новые Зарубежные сериалы и Русские сериалы 2013, 2014, 2015 годов. Оставайтесь с нами, качайте любимые фильмы, игры, сериалы, книги и музыку.