img image001 image001 image001 image001 image001 image001 image001 image001 image001 image001 image001 image001 image001 image001 image001

Planets Sun Sun Sun
Статистика раздачи
Автор: Снежана | Размер: 1.46 ГБ | Добавлен: 25 июл 2013
Раздают: 0    Качают: 3
Скачать торрент
Скачать торрент
Описание торрента

СообщениеДобавлено: 25 июл 2013 

#77
Год выпуска: 2003
Страна: Италия

Жанр: документальный
Продолжительность: 01:01:30

Перевод: Профессиональный (одноголосый)
Субтитры: нет

Режиссер: Giuseppe Gangi

Описание: В фильме в течение часа рассказывается о достопримечательностях и красотах Рима и Ватикана. На видео Вы увидите:
Рим: Roman Forum * Colosseum * Appian Way * Navona Square * Catacombs * The Panteon * The Spanish Steps * Trevi Fountain * Michelangel's Moses * и т.д...
Ватикан: Basilica of Saint Peter * Pieta by Michelangelo * Sistine Chapel * Raphael's School of Athens * Papal Audience * и т.д...





Исходник: DVD5
Качество: DVDRip-AVC
Формат: MKV

Видео: 688x568 -> 756х568 (4:3), 25 fps, H264 ~ 2428 kbps avg, 0.249 bit/pixel
Аудио 1: 48 kHz, AC3, 2 ch, 192.00 kbps Constant Русский
Аудио 2: 48 kHz, AC3, 2 ch, 192.00 kbps Constant Итальянский
Аудио 3: 48 kHz, AC3, 2 ch, 192.00 kbps Constant Английский
Аудио 4: 48 kHz, AC3, 2 ch, 192.00 kbps Constant Немецкий
Аудио 5: 48 kHz, AC3, 2 ch, 192.00 kbps Constant Французский
Общее
Полное имя : Rome and Vatican.2003Rome and Vatican.2003.DVDRip-AVC.mkv
Формат : Matroska
Версия формата : Version 2
Размер файла : 1,46 Гбайт
Продолжительность : 1 ч. 1 м.
Общий поток : 3391 Кбит/сек
Название фильма : Rome and Vatican.2003.DVDRip-AVC
Дата кодирования : UTC 2012-01-11 15:58:56
Программа кодирования : mkvmerge v5.2.0 ('I can't explain') built on Dec 18 2011 18:12:03
Библиотека кодирования : libebml v1.2.3 + libmatroska v1.3.0

Видео
Идентификатор : 1
Формат : AVC
Формат/Информация : Advanced Video Codec
Профиль формата : High@L4.1
Параметр CABAC формата : Да
Параметр ReFrames формата : 6 кадров
Идентификатор кодека : V_MPEG4/ISO/AVC
Продолжительность : 1 ч. 1 м.
Битрейт : 2428 Кбит/сек
Ширина : 688 пикселей
Высота : 568 пикселей
Соотношение сторон : 4:3
Соотношение сторон в оригинале : 4:3
Частота кадров : 25,000 кадров/сек
Цветовое пространство : YUV
Субдискретизация насыщенности : 4:2:0
Битовая глубина : 8 бит
Тип развёртки : Прогрессивная
Бит/(Пиксели*Кадры) : 0.249
Размер потока : 1,02 Гбайт (70%)
Заголовок : Источник DVD
Библиотека кодирования : x264 core 119 r2106 07efeb4
Настройки программы : cabac=1 / ref=6 / deblock=1:-2:-1 / analyse=0x3:0x113 / me=umh / subme=6 / psy=1 / psy_rd=1.00:0.10 / mixed_ref=1 / me_range=32 / chroma_me=1 / trellis=1 / 8x8dct=1 / cqm=0 / deadzone=21,11 / fast_pskip=1 / chroma_qp_offset=-3 / threads=3 / sliced_threads=0 / nr=0 / decimate=1 / interlaced=0 / bluray_compat=0 / constrained_intra=0 / bframes=6 / b_pyramid=2 / b_adapt=1 / b_bias=0 / direct=3 / weightb=1 / open_gop=0 / weightp=0 / keyint=250 / keyint_min=25 / scenecut=40 / intra_refresh=0 / rc_lookahead=60 / rc=2pass / mbtree=1 / bitrate=2428 / ratetol=1.0 / qcomp=0.60 / qpmin=0 / qpmax=69 / qpstep=4 / cplxblur=20.0 / qblur=0.5 / ip_ratio=1.40 / aq=1:1.00
Язык : Italian
Default : Да
Forced : Нет

Аудио #1
Идентификатор : 2
Формат : AC-3
Формат/Информация : Audio Coding 3
Расширение режима : CM (complete main)
Идентификатор кодека : A_AC3
Продолжительность : 1 ч. 1 м.
Вид битрейта : Постоянный
Битрейт : 192 Кбит/сек
Каналы : 2 канала
Расположение каналов : Front: L R
Частота : 48,0 КГц
Битовая глубина : 16 бит
Метод сжатия : С потерями
Размер потока : 84,5 Мбайт (6%)
Заголовок : Источник DVD
Язык : Russian
Default : Да
Forced : Нет

Аудио #2
Идентификатор : 3
Формат : AC-3
Формат/Информация : Audio Coding 3
Расширение режима : CM (complete main)
Идентификатор кодека : A_AC3
Продолжительность : 1 ч. 1 м.
Вид битрейта : Постоянный
Битрейт : 192 Кбит/сек
Каналы : 2 канала
Расположение каналов : Front: L R
Частота : 48,0 КГц
Битовая глубина : 16 бит
Метод сжатия : С потерями
Размер потока : 84,5 Мбайт (6%)
Заголовок : Источник DVD
Язык : Italian
Default : Нет
Forced : Нет

Аудио #3
Идентификатор : 4
Формат : AC-3
Формат/Информация : Audio Coding 3
Расширение режима : CM (complete main)
Идентификатор кодека : A_AC3
Продолжительность : 1 ч. 1 м.
Вид битрейта : Постоянный
Битрейт : 192 Кбит/сек
Каналы : 2 канала
Расположение каналов : Front: L R
Частота : 48,0 КГц
Битовая глубина : 16 бит
Метод сжатия : С потерями
Размер потока : 84,5 Мбайт (6%)
Заголовок : Источник DVD
Язык : English
Default : Нет
Forced : Нет

Аудио #4
Идентификатор : 5
Формат : AC-3
Формат/Информация : Audio Coding 3
Расширение режима : CM (complete main)
Идентификатор кодека : A_AC3
Продолжительность : 1 ч. 1 м.
Вид битрейта : Постоянный
Битрейт : 192 Кбит/сек
Каналы : 2 канала
Расположение каналов : Front: L R
Частота : 48,0 КГц
Битовая глубина : 16 бит
Метод сжатия : С потерями
Размер потока : 84,5 Мбайт (6%)
Заголовок : Источник DVD
Язык : German
Default : Нет
Forced : Нет

Аудио #5
Идентификатор : 6
Формат : AC-3
Формат/Информация : Audio Coding 3
Расширение режима : CM (complete main)
Идентификатор кодека : A_AC3
Продолжительность : 1 ч. 1 м.
Вид битрейта : Постоянный
Битрейт : 192 Кбит/сек
Каналы : 2 канала
Расположение каналов : Front: L R
Частота : 48,0 КГц
Битовая глубина : 16 бит
Метод сжатия : С потерями
Размер потока : 84,5 Мбайт (6%)
Заголовок : Источник DVD
Язык : French
Default : Нет
Forced : Нет




Раздача от:



   Похожие торренты   Торрент   Размер 
В этой теме нет новых непрочитанных сообщений. Рим и Ватикан / Rome and Vatican (2003) DVD5 от Youtracker

0 | 2

3.3 ГБ

В этой теме нет новых непрочитанных сообщений. Ватикан / The Vatican city (2011) DVDRip от Youtracker | P1

5 | 1

1.43 ГБ

В этой теме нет новых непрочитанных сообщений. Ватикан / The Vatican city (2011) DVD9 от Youtracker | P1

0 | 3

6.57 ГБ

В этой теме нет новых непрочитанных сообщений. Ватикан и Третий Рейх / The Vatican and the Third Reich (2014) IPTVRip от Pshichko66

126 | 15

800.58 МБ

В этой теме нет новых непрочитанных сообщений. National Geographic: Папа Франциск: Путь в Ватикан / Pope Francis: Road To The Vatican (2013) SATRip

1 | 2

539.85 МБ

В этой теме нет новых непрочитанных сообщений. BBC: Колизей: арена смерти / Colosseum: Rome's arena of death (2003) DVDRip by Torrento

23 | 3

700.07 МБ

В этой теме нет новых непрочитанных сообщений. Наследие человечества. Выпуск 21. Ватикан, Помпеи, Пиза (2011) DVDRip от New-Team | P1

17 | 4

746.29 МБ




Вы не можете начинать темы
Вы не можете отвечать на сообщения
Вы не можете редактировать свои сообщения
Вы не можете удалять свои сообщения
Вы не можете добавлять вложения

Перейти:  
Для Мосгорсуда, Роскомнадзора и рекламодателей: mosgorsud-torrent[собачка]yandex.ru
 Вход
ppkBB3cker v.2 © 2008-2014 @ PPK
[ Time : 0.045s | 15 Queries | GZIP : Off ]

Торрент трекер RUTOR.IN, Не можете зайти на rutor.org? Какой новый адрес рутор? Какое зеркало рутор? Не работает rutor.org и зеркала? Тогда наш торрент специально для вас. Rutor.in неофициальное зеркало rutor. В случае если у Вас заблокирован rutor или вдруг Вы не можете на него зайти, то Вы без труда сможете скачать бесплатно и без рекламы последние новинки кино, игр, сериалов и прочего у нас, на Rutor.in. Не нужно использовать прокси, чтобы зайти на рутор, достаточно воспользоваться нашим ресурсом. Все новые фильмы, игры, сериалы, книги и музыка за 2013 и 2014 годы через торрент бесплатно. Скачивайте фильмы в хорошем качестве, игры для пк, xbox, playstation без регистрации. У нас вы найдете новые Зарубежные сериалы и Русские сериалы 2013, 2014, 2015 годов. Оставайтесь с нами, качайте любимые фильмы, игры, сериалы, книги и музыку.
cron