img image001 image001 image001 image001 image001 image001 image001 image001 image001 image001 image001 image001 image001 image001 image001

Planets Sun Sun Sun
Статистика раздачи
Автор: Снежана | Размер: 1.46 ГБ | Добавлен: 25 июл 2013
Раздают: 7    Качают: 6
Скачать торрент
Скачать торрент
Описание торрента

СообщениеДобавлено: 25 июл 2013 

«Земля через 5 миллионов лет»


#77
Год выпуска: 2003
Страна: США, Германия, Великобритания
Студия: The Future is Wild Limited

Жанр: мультфильм, документальный
Продолжительность: 02:36:04

Перевод: Профессиональный (многоголосый, закадровый)
Субтитры: нет
Оригинальная аудиодорожка: нет

Режиссер: Джон Адамс / John Adams

Описание: Вы хотите узнать, что ждет нашу планету в далеком будущем? Как преобразится Земля, пережив глобальные катаклизмы, губительные изменения климата, столкновения материков и нашествие удивительных и невероятных существ? Теперь у Вас есть уникальная возможность заглянуть в неведомое грядущее вместе с создателями сенсационного фильма «Дикий мир будущего»!
Без машины времени Вы перенесетесь в будущее на 5 000 000, 100 000 000 и 200 000 000 лет, чтобы увидеть мир, достойный пера гениального фантаста. Но то, что предстанет Вашему взору, вовсе не выдумка! Пользуясь сложнейшими расчетами, строго обоснованными прогнозами и богатейшими познаниями в биологии и геологии, ведущие ученые из США, Великобритании, Германии и Канады вместе с мастерами компьютерной анимации создали портрет нашей планеты и ее обитателей спустя много веков после того, как ее покинет последний человек....





Качество видео: DVDRip
Формат видео: AVI

Видео: 672x384 (1,75:1), 25 fps, XviD MPEG-4 ~ 1195 kbps avg, 0.185 bit/pixel
Аудио: Русский, 48 kHz, MP3 2 ch, 128.00 kbps Constant
Общее
Полное имя : Progulki.s.monstrami.buduwego.DVDRip.2003_[Youtracker]_by_AVP_Studio.avi
Формат : AVI
Формат/Информация : Audio Video Interleave
Размер файла : 1,46 Гбайт
Продолжительность : 2 ч. 36 м.
Общий поток : 1333 Кбит/сек
Программа кодирования : VirtualDubMod 1.5.10.3 | www.virtualdub-fr.org || (build 2550/release)
Библиотека кодирования : VirtualDubMod build 2550/release

Видео
Идентификатор : 0
Формат : MPEG-4 Visual
Профиль формата : Advanced Simple@L5
Параметр BVOP формата : 1
Параметр QPel формата : Нет
Параметр GMC формата : Без точки перехода
Параметр матрицы формата : Выборочная
Идентификатор кодека : XVID
Идентификатор кодека/Подсказка : XviD
Продолжительность : 2 ч. 36 м.
Битрейт : 1195 Кбит/сек
Ширина : 672 пикселя
Высота : 384 пикселя
Соотношение сторон : 16:9
Частота кадров : 25,000 кадров/сек
Цветовое пространство : YUV
Субдискретизация насыщенности : 4:2:0
Битовая глубина : 8 бит
Тип развёртки : Прогрессивная
Метод сжатия : С потерями
Бит/(Пиксели*Кадры) : 0.185
Размер потока : 1,31 Гбайт (90%)
Библиотека кодирования : XviD 65

Аудио
Идентификатор : 1
Формат : MPEG Audio
Версия формата : Version 1
Профиль формата : Layer 3
Идентификатор кодека : 55
Идентификатор кодека/Подсказка : MP3
Продолжительность : 2 ч. 36 м.
Вид битрейта : Постоянный
Битрейт : 128 Кбит/сек
Каналы : 2 канала
Частота : 48,0 КГц
Метод сжатия : С потерями
Размер потока : 143 Мбайт (10%)
Выравнивание : Соединение по промежуткам
Продолжительность промежутка : 40 мс. (1,00 видеокадр)
Время предзагрузки промежутка : 504 мс.
Библиотека кодирования : L3.99r
Настройки программы : -m s -V 4 -q 2 -lowpass 17 -b 128



Раздача от:



   Похожие торренты   Торрент   Размер 
В этой теме нет новых непрочитанных сообщений. BBC: Прогулки с монстрами будущего / The Future Is Wild (2003) DVDRip от Youtracker | P

16 | 2

2.19 ГБ

В этой теме нет новых непрочитанных сообщений. BBC: Прогулки с монстрами будущего / The Future Is Wild (2003) DVD9 от Youtracker | P

0 | 3

7.22 ГБ

В этой теме нет новых непрочитанных сообщений. BBC: Дикий мир будущего / Прогулки с монстрами будущего / BBC: The Future is Wild (2003) DVDRip by GENADIY

14 | 12

4.37 ГБ

В этой теме нет новых непрочитанных сообщений. BBC: Прогулки с монстрами. Жизнь до динозавров / Walking with Monsters (2005) DVDRip

284 | 8

1.37 ГБ

В этой теме нет новых непрочитанных сообщений. Прогулки с монстрами / Walking With Monsters Life Before (2005) DVD5

33 | 3

4.04 ГБ

В этой теме нет новых непрочитанных сообщений. Прогулки с чудовищами / BBC: Walking with Beasts [01-06 из 06] (2003) DVDRip-AVC от -=HD-NET=-

225 | 15

2.38 ГБ

В этой теме нет новых непрочитанных сообщений. BBC: Прогулки с пещерным человеком / BBC: Walking With Cavemen [01-04 из 04] (2003) DVDRip

33 | 6

1.37 ГБ




Вы не можете начинать темы
Вы не можете отвечать на сообщения
Вы не можете редактировать свои сообщения
Вы не можете удалять свои сообщения
Вы не можете добавлять вложения

Перейти:  
Для Мосгорсуда, Роскомнадзора и рекламодателей: mosgorsud-torrent[собачка]yandex.ru
 Вход
ppkBB3cker v.2 © 2008-2014 @ PPK
[ Time : 2.677s | 15 Queries | GZIP : Off ]

Торрент трекер RUTOR.IN, Не можете зайти на rutor.org? Какой новый адрес рутор? Какое зеркало рутор? Не работает rutor.org и зеркала? Тогда наш торрент специально для вас. Rutor.in неофициальное зеркало rutor. В случае если у Вас заблокирован rutor или вдруг Вы не можете на него зайти, то Вы без труда сможете скачать бесплатно и без рекламы последние новинки кино, игр, сериалов и прочего у нас, на Rutor.in. Не нужно использовать прокси, чтобы зайти на рутор, достаточно воспользоваться нашим ресурсом. Все новые фильмы, игры, сериалы, книги и музыка за 2013 и 2014 годы через торрент бесплатно. Скачивайте фильмы в хорошем качестве, игры для пк, xbox, playstation без регистрации. У нас вы найдете новые Зарубежные сериалы и Русские сериалы 2013, 2014, 2015 годов. Оставайтесь с нами, качайте любимые фильмы, игры, сериалы, книги и музыку.
cron