img image001 image001 image001 image001 image001 image001 image001 image001 image001 image001 image001 image001 image001 image001 image001 image001

Planets Sun Sun Sun
Статистика раздачи
Автор: Снежана | Размер: 1.46 ГБ | Добавлен: 24 июл 2013
Раздают: 7    Качают: 6
Скачать торрент
Скачать торрент
Описание торрента

СообщениеДобавлено: 24 июл 2013 

«Земля через 5 миллионов лет»


#77
Год выпуска: 2003
Страна: США, Германия, Великобритания
Студия: The Future is Wild Limited

Жанр: мультфильм, документальный
Продолжительность: 02:36:04

Перевод: Профессиональный (многоголосый, закадровый)
Субтитры: нет
Оригинальная аудиодорожка: нет

Режиссер: Джон Адамс / John Adams

Описание: Вы хотите узнать, что ждет нашу планету в далеком будущем? Как преобразится Земля, пережив глобальные катаклизмы, губительные изменения климата, столкновения материков и нашествие удивительных и невероятных существ? Теперь у Вас есть уникальная возможность заглянуть в неведомое грядущее вместе с создателями сенсационного фильма «Дикий мир будущего»!
Без машины времени Вы перенесетесь в будущее на 5 000 000, 100 000 000 и 200 000 000 лет, чтобы увидеть мир, достойный пера гениального фантаста. Но то, что предстанет Вашему взору, вовсе не выдумка! Пользуясь сложнейшими расчетами, строго обоснованными прогнозами и богатейшими познаниями в биологии и геологии, ведущие ученые из США, Великобритании, Германии и Канады вместе с мастерами компьютерной анимации создали портрет нашей планеты и ее обитателей спустя много веков после того, как ее покинет последний человек....





Качество видео: DVDRip
Формат видео: AVI

Видео: 672x384 (1,75:1), 25 fps, XviD MPEG-4 ~ 1195 kbps avg, 0.185 bit/pixel
Аудио: Русский, 48 kHz, MP3 2 ch, 128.00 kbps Constant
Общее
Полное имя : Progulki.s.monstrami.buduwego.DVDRip.2003_[Youtracker]_by_AVP_Studio.avi
Формат : AVI
Формат/Информация : Audio Video Interleave
Размер файла : 1,46 Гбайт
Продолжительность : 2 ч. 36 м.
Общий поток : 1333 Кбит/сек
Программа кодирования : VirtualDubMod 1.5.10.3 | www.virtualdub-fr.org || (build 2550/release)
Библиотека кодирования : VirtualDubMod build 2550/release

Видео
Идентификатор : 0
Формат : MPEG-4 Visual
Профиль формата : Advanced Simple@L5
Параметр BVOP формата : 1
Параметр QPel формата : Нет
Параметр GMC формата : Без точки перехода
Параметр матрицы формата : Выборочная
Идентификатор кодека : XVID
Идентификатор кодека/Подсказка : XviD
Продолжительность : 2 ч. 36 м.
Битрейт : 1195 Кбит/сек
Ширина : 672 пикселя
Высота : 384 пикселя
Соотношение сторон : 16:9
Частота кадров : 25,000 кадров/сек
Цветовое пространство : YUV
Субдискретизация насыщенности : 4:2:0
Битовая глубина : 8 бит
Тип развёртки : Прогрессивная
Метод сжатия : С потерями
Бит/(Пиксели*Кадры) : 0.185
Размер потока : 1,31 Гбайт (90%)
Библиотека кодирования : XviD 65

Аудио
Идентификатор : 1
Формат : MPEG Audio
Версия формата : Version 1
Профиль формата : Layer 3
Идентификатор кодека : 55
Идентификатор кодека/Подсказка : MP3
Продолжительность : 2 ч. 36 м.
Вид битрейта : Постоянный
Битрейт : 128 Кбит/сек
Каналы : 2 канала
Частота : 48,0 КГц
Метод сжатия : С потерями
Размер потока : 143 Мбайт (10%)
Выравнивание : Соединение по промежуткам
Продолжительность промежутка : 40 мс. (1,00 видеокадр)
Время предзагрузки промежутка : 504 мс.
Библиотека кодирования : L3.99r
Настройки программы : -m s -V 4 -q 2 -lowpass 17 -b 128



Раздача от:



   Похожие торренты   Торрент   Размер 
В этой теме нет новых непрочитанных сообщений. Удар из будущего / Future Kick (1991) DVDRip | А

14 | 0

1.37 ГБ

В этой теме нет новых непрочитанных сообщений. Удар из будущего / Future Kick (1991) DVDRip | P

98 | 11

748.67 МБ

В этой теме нет новых непрочитанных сообщений. Йор, охотник будущего / Il mondo di Yor / Yor, the Hunter from the Future (1983) DVDRip-AVC | A

80 | 10

1.46 ГБ

В этой теме нет новых непрочитанных сообщений. Удар из будущего / Future Kick (1991) DVDRip-AVC от Freak Chaos | P

68 | 15

1.51 ГБ

В этой теме нет новых непрочитанных сообщений. Люди Икс: Дни минувшего будущего / X-Men: Days of Future Past (2014) DVDRip | D

1033 | 79

2.06 ГБ

В этой теме нет новых непрочитанных сообщений. Люди Икс: Дни минувшего будущего / X-Men: Days of Future Past (2014) DVDRip-AVC | D

351 | 167

2.99 ГБ

В этой теме нет новых непрочитанных сообщений. Люди Икс: Дни минувшего будущего / X-Men: Days of Future Past (2014) DVDRip-AVC от MediaClub | D

310 | 16

2.91 ГБ




Вы не можете начинать темы
Вы не можете отвечать на сообщения
Вы не можете редактировать свои сообщения
Вы не можете удалять свои сообщения
Вы не можете добавлять вложения

Перейти:  
 Вход
ppkBB3cker v.2 © 2008-2014 @ PPK
[ Time : 0.034s | 17 Queries | GZIP : Off ]

cron