img image001 image001 image001 image001 image001 image001 image001 image001 image001 image001 image001 image001 image001 image001 image001

Planets Sun Sun Sun
Статистика раздачи
Автор: Снежана | Размер: 746.22 МБ | Добавлен: 24 июл 2013
Раздают: 0    Качают: 5
Скачать торрент
Скачать торрент
Описание торрента

СообщениеДобавлено: 24 июл 2013 

#77
Страна: США
Жанр: документальный, криминал
Год выпуска: 2010
Продолжительность: 01:48:38

Перевод: Профессиональный (многоголосый) лицензия
Cубтитры: русский, английский, французкий
Оригинальная аудиодорожка: нет

Режиссер: Чарльз Фергюсон / Charles Ferguson

Описание: Спад в мировой экономике, убыток от которого был оценен в 20 тысяч миллиардов долларов, повлек за собой потерю работы и жилья для нескольких миллионов человек. В ходе тщательных исследований и интервью с ведущими фигурами финансового мира, политическими деятелями и журналистами, фильм приоткрывает перед нами страшную правду о зарождении преступной индустрии и о ее сетях, позволивших подкупить политику, органы экономического регулирования и ученый мир...





Исходник: BDRemux 1080p
Тип релиза: BDRip
Контейнер: AVI

Видео: 720x304 (2.35:1), 23.976 fps, XviD ~ 822 kbps avg, 0.157 bit/pixel
Аудио: 48 kHz, MP3, 6 ch, 128.00 kbps, Русский
Формат субтитров: SoftSub (srt)
Общее
Полное имя : Insaydery.2010Insaydery.2010.BDRip.745Insaydery.2010.BDRip.avi
Формат : AVI
Формат/Информация : Audio Video Interleave
Размер файла : 746 Мбайт
Продолжительность : 1 ч. 48 м.
Общий поток : 960 Кбит/сек
Программа кодирования : VirtualDubModRus 1.5.10.2 (build 2542/release)
Библиотека кодирования : VirtualDubMod build 2542/release

Видео
Идентификатор : 0
Формат : MPEG-4 Visual
Профиль формата : Advanced Simple@L5
Параметр BVOP формата : 1
Параметр QPel формата : Нет
Параметр GMC формата : Без точки перехода
Параметр матрицы формата : Выборочная
Идентификатор кодека : XVID
Идентификатор кодека/Подсказка : XviD
Продолжительность : 1 ч. 48 м.
Битрейт : 822 Кбит/сек
Ширина : 720 пикселей
Высота : 304 пикселя
Соотношение сторон : 2,35:1
Частота кадров : 23,976 кадра/сек
Цветовое пространство : YUV
Субдискретизация насыщенности : 4:2:0
Битовая глубина : 8 бит
Тип развёртки : Прогрессивная
Метод сжатия : С потерями
Бит/(Пиксели*Кадры) : 0.157
Размер потока : 639 Мбайт (86%)
Библиотека кодирования : XviD 64

Аудио
Идентификатор : 1
Формат : MPEG Audio
Версия формата : Version 1
Профиль формата : Layer 3
Режим : Joint stereo
Расширение режима : MS Stereo
Идентификатор кодека : 55
Идентификатор кодека/Подсказка : MP3
Продолжительность : 1 ч. 48 м.
Вид битрейта : Постоянный
Битрейт : 128 Кбит/сек
Каналы : 2 канала
Частота : 48,0 КГц
Метод сжатия : С потерями
Размер потока : 99,5 Мбайт (13%)
Выравнивание : Соединение по промежуткам
Продолжительность промежутка : 42 мс. (1,00 видеокадр)
Время предзагрузки промежутка : 504 мс.
Библиотека кодирования : LAME3.99 (alpha)ЄЄ



Раздача от:



   Похожие торренты   Торрент   Размер 
В этой теме нет новых непрочитанных сообщений. Внутреннее дело / Инсайдеры / Инсайдерская работа / Inside Job (2010) DVD5 от Youtracker | лицензия

0 | 3

4.31 ГБ

В этой теме нет новых непрочитанных сообщений. Внутреннее дело / Инсайдеры / Инсайдерская работа / Inside Job (2010) BDRip 720p

26 | 1

5.15 ГБ

В этой теме нет новых непрочитанных сообщений. Внутреннее дело / Инсайдеры / Инсайдерская работа / Inside Job (2010) BDRip-AVC | Ю. Сербин

0 | 3

1.67 ГБ

В этой теме нет новых непрочитанных сообщений. Внутреннее дело / Инсайдеры / Инсайдерская работа / Inside Job (2010) BDRip 720p | Ю. Сербин

0 | 2

4.86 ГБ

В этой теме нет новых непрочитанных сообщений. Внутреннее дело / Инсайдеры / Инсайдерская работа / Inside Job (2010) HDRip | Лицензия

58 | 5

1.46 ГБ

В этой теме нет новых непрочитанных сообщений. Внутреннее дело / Инсайдеры / Инсайдерская работа / Inside Job (2010) HDRip | Ю. Сербин

0 | 1

1.45 ГБ

В этой теме нет новых непрочитанных сообщений. Keit Laumer / Кит Лаумер / Кейт Ломер - Ретиф - Космический дипломат. Внутреннее дело. (1971) (2013) MP3

21 | 2

57.27 МБ




Вы не можете начинать темы
Вы не можете отвечать на сообщения
Вы не можете редактировать свои сообщения
Вы не можете удалять свои сообщения
Вы не можете добавлять вложения

Перейти:  
Для Мосгорсуда, Роскомнадзора и рекламодателей: mosgorsud-torrent[собачка]yandex.ru
 Вход
ppkBB3cker v.2 © 2008-2014 @ PPK
[ Time : 0.042s | 15 Queries | GZIP : Off ]

cron