img image001 image001 image001 image001 image001 image001 image001 image001 image001 image001 image001 image001 image001 image001 image001

Planets Sun Sun Sun
Статистика раздачи
Автор: Снежана | Размер: 4.05 ГБ | Добавлен: 25 июл 2013
Раздают: 11    Качают: 3
Скачать торрент
Скачать торрент
Описание торрента

СообщениеДобавлено: 25 июл 2013 

#77

Информация о фильме
Название: История мира за два часа
Оригинальное название: History of the World in Two Hours
Год выхода: 2011
Жанр: Документальный, научно-популярный
Режиссер: Дуглас Коэн

О фильме:

Авторы фильма рассказывают историю мира от Большого взрыва и до наших дней. Как наша планета готовилась к появлению человека. Как каменный век привел к изобретению паровоза. Как взошли первые семена городов и цивилизаций. Все началось 13,7 миллиардов лет назад с крошечной Вселенной, в которой все было в одном месте. Потом - Большой взрыв. Вся энергия, когда-либо существовавшая, появилась в один миг. Потом образовалась Земля, а на ней сформировались благоприятные для жизни условия. Земля развивалась, а жизнь сражалась за энергию и становилась все более сложной. Наконец, созрели условия для появления нашего вида. Мы управляли камнем и огнем. Когда наступил ледниковый период, мы разбрелись по всему миру. Когда лед расстаял, мы оказались отрезанными друг от друга на материках. Мы научились подчинять своей воле растения и животных. Мы строили города, а потом цивилизации. В наши дни число людей близится к 7 миллиардам. Мы научились эксплуатировать в 50.000 раз больше энергии, чем наши праотцы, которые жили всего 10.000 лет назад. Что бы мы ни делал

Страна: США
Продолжительность: 01:28:04
Перевод: Профессиональный (многоголосый, закадровый)
Русские субтитры: нет

Файл
Качество: BDRip
Формат: MKV
Видео кодек: H.264
Аудио кодек: AC3
Видео: 1280x720,16:9,6 590 Kbps,23.976 fps
Аудио: AC-3 ,192 Kbps,48.0 KHz ,2 channels,русский (канал "Культура")

Format : Matroska
Format version : Version 2
File size : 4.05 GiB
Duration : 1h 28mn
Overall bit rate : 6 590 Kbps
Encoded date : UTC 2012-10-12 10:26:40
Writing application : mkvmerge v4.0.0 ('The Stars were mine') сборка от Jun 18 2010 16:54:49
Writing library : libebml v1.0.0 + libmatroska v1.0.0

Video
ID : 1
Format : AVC
Format/Info : Advanced Video Codec
Format profile : High@L4.1
Format settings, CABAC : Yes
Format settings, ReFrames : 8 frames
Codec ID : V_MPEG4/ISO/AVC
Duration : 1h 28mn
Bit rate : 6 267 Kbps
Width : 1 280 pixels
Height : 720 pixels
Display aspect ratio : 16:9
Frame rate mode : Constant
Frame rate : 23.976 fps
Color space : YUV
Chroma subsampling : 4:2:0
Bit depth : 8 bits
Scan type : Progressive
Bits/(Pixel*Frame) : 0.284
Stream size : 3.85 GiB (95%)
Writing library : x264 core 116 r2074 2641b9e
Encoding settings : cabac=1 / ref=8 / deblock=1:-3:-3 / analyse=0x3:0x133 / me=tesa / subme=10 / psy=1 / psy_rd=1.00:0.00 / mixed_ref=1 / me_range=32 / chroma_me=1 / trellis=2 / 8x8dct=1 / cqm=0 / deadzone=21,11 / fast_pskip=0 / chroma_qp_offset=-2 / threads=6 / sliced_threads=0 / nr=0 / decimate=0 / interlaced=0 / bluray_compat=0 / constrained_intra=0 / bframes=8 / b_pyramid=2 / b_adapt=2 / b_bias=0 / direct=3 / weightb=1 / open_gop=0 / weightp=2 / keyint=250 / keyint_min=23 / scenecut=40 / intra_refresh=0 / rc_lookahead=50 / rc=crf / mbtree=1 / crf=18.3 / qcomp=0.80 / qpmin=0 / qpmax=69 / qpstep=4 / vbv_maxrate=50000 / vbv_bufsize=62500 / crf_max=0.0 / nal_hrd=none / ip_ratio=1.40 / aq=1:0.80
Language : English
Default : Yes
Forced : No

Audio
ID : 2
Format : AC-3
Format/Info : Audio Coding 3
Mode extension : CM (complete main)
Format settings, Endianness : Big
Codec ID : A_AC3
Duration : 1h 28mn
Bit rate mode : Constant
Bit rate : 192 Kbps
Channel(s) : 2 channels
Channel positions : Front: L R
Sampling rate : 48.0 KHz
Bit depth : 16 bits
Compression mode : Lossy
Stream size : 121 MiB (3%)
Default : No
Forced : No



   Похожие торренты   Торрент   Размер 
В этой теме нет новых непрочитанных сообщений. История мира в двух часах / History of the World in Two Hours (2011) BDRip-AVC

35 | 3

1.19 ГБ

В этой теме нет новых непрочитанных сообщений. История мира в двух часах в 3Д / History of the World in Two Hours 3D (2011) BDRip 1080p | 3D-Video

38 | 2

8.65 ГБ

В этой теме нет новых непрочитанных сообщений. История мира в двух часах / History of the World in Two Hours (2011) TVRip

1 | 1

630.21 МБ

В этой теме нет новых непрочитанных сообщений. История мира за два часа / History of the World in Two Hours (2011) HDRip от ExKinoRay

179 | 8

1.08 ГБ

В этой теме нет новых непрочитанных сообщений. Всемирная история. Часть I / History of the World. Part I (1981) BDRip 720p

523 | 6

4.06 ГБ

В этой теме нет новых непрочитанных сообщений. Всемирная история, часть 1 / History of the World: Part I (1981) BDRip 720p от torrentfilm | A

117 | 6

5.24 ГБ

В этой теме нет новых непрочитанных сообщений. Всемирная история, часть 1 / History of the World: Part I (1981) BDRip-AVC | iPad

116 | 8

1.58 ГБ




Вы не можете начинать темы
Вы не можете отвечать на сообщения
Вы не можете редактировать свои сообщения
Вы не можете удалять свои сообщения
Вы не можете добавлять вложения

Перейти:  
Для Мосгорсуда, Роскомнадзора и рекламодателей: mosgorsud-torrent[собачка]yandex.ru
 Вход
ppkBB3cker v.2 © 2008-2014 @ PPK
[ Time : 0.034s | 16 Queries | GZIP : Off ]

Торрент трекер RUTOR.IN, Не можете зайти на rutor.org? Какой новый адрес рутор? Какое зеркало рутор? Не работает rutor.org и зеркала? Тогда наш торрент специально для вас. Rutor.in неофициальное зеркало rutor. В случае если у Вас заблокирован rutor или вдруг Вы не можете на него зайти, то Вы без труда сможете скачать бесплатно и без рекламы последние новинки кино, игр, сериалов и прочего у нас, на Rutor.in. Не нужно использовать прокси, чтобы зайти на рутор, достаточно воспользоваться нашим ресурсом. Все новые фильмы, игры, сериалы, книги и музыка за 2013 и 2014 годы через торрент бесплатно. Скачивайте фильмы в хорошем качестве, игры для пк, xbox, playstation без регистрации. У нас вы найдете новые Зарубежные сериалы и Русские сериалы 2013, 2014, 2015 годов. Оставайтесь с нами, качайте любимые фильмы, игры, сериалы, книги и музыку.