img image001 image001 image001 image001 image001 image001 image001 image001 image001 image001 image001 image001 image001 image001 image001

Planets Sun Sun Sun
Статистика раздачи
Автор: Снежана | Размер: 2.23 ГБ | Добавлен: 25 июл 2013
Раздают: 115    Качают: 3
Скачать торрент
Скачать торрент
Описание торрента

СообщениеДобавлено: 25 июл 2013 

#77

Информация о фильме
Название: Откровения пирамид
Оригинальное название: La revelation des pyramides
Год выпуска: 2010
Жанр: Документальный, научно-познавательный, естествознание, исследование, история, культура
Режиссер: Патрис Пуйар
В ролях: Брайан Кокс

О фильме: Многие века тайны Великих Пирамид в Гизе будоражат умы людей. Сотни тысяч туристов со всего мира каждый год отправляются в Египет, чтобы увидеть Великого Сфинкса и Пирамиды Хеопса, Хефрена и Микерина. Путь создателей фильма пролег от Китая до Перу, от Египта до Мексики и от Ближнего Востока до острова Пасхи — по древнейшим, красивейшим и наиболее таинственным местам нашей планеты. Создатели этого документального блокбастера предлагают совершенно новую и непривычную для приверженцев традиционного академического подхода точку зрения на то, что являют собой Великие Пирамиды на самом деле.



Выпущено: Франция, Ekwanim Productions, Kerguelen Productions, Gerard Fournerie, Felix Altmann Productions
Продолжительность: 01:41:51
Перевод: Профессиональный многоголосый
Дата релиза: 25.10.2012

Файл
Кодек: H264
Качество: BDRip-AVC
Видео: MPEG-4 AVC, 2300 Kбит/с, 1024x554
Звук: Русский (AC3, 5 ch, 384 Кбит/с), английский (AC3, 6 ch, 448 Кбит/с)

Семпл
Общее
Уникальный идентификатор : 173454175621338449126636003963595393269 (0x827E0F1FEB932D9492E978DF29B008F5)
Полное имя : G:1Otkrovenija.piramid.2009.x264.BDRip.(AVC).ExKinoRay.mkv
Формат : Matroska
Версия формата : Version 2
Размер файла : 2,23 Гбайт
Продолжительность : 1 ч. 41 м.
Общий поток : 3134 Кбит/сек
Название фильма : Otkrovenija.piramid.2009.x264.BDRip.(AVC).ExKinoRay
Дата кодирования : UTC 2012-10-25 15:22:44
Программа кодирования : mkvmerge v4.0.0 ('The Stars were mine') сборка от Jun 6 2010 16:18:42
Библиотека кодирования : libebml v1.0.0 + libmatroska v1.0.0
Видео
Идентификатор : 1
Формат : AVC
Формат/Информация : Advanced Video Codec
Профиль формата : High@L4.1
Параметр CABAC формата : Да
Параметр ReFrames формата : 8 кадров
Идентификатор кодека : V_MPEG4/ISO/AVC
Продолжительность : 1 ч. 41 м.
Битрейт : 2300 Кбит/сек
Ширина : 1024 пикселя
Высота : 554 пикселя
Соотношение сторон : 16:9
Частота кадров : 25,000 кадров/сек
Цветовое пространство : YUV
Субдискретизация насыщенности : 4:2:0
Битовая глубина : 8 бит
Тип развёртки : Прогрессивная
Бит/(Пиксели*Кадры) : 0.162
Размер потока : 1,59 Гбайт (71%)
Заголовок : Rip by Enigma-Vladislav71
Библиотека кодирования : x264 core 116 r2074 2641b9e
Настройки программы : cabac=1 / ref=8 / deblock=1:-2:-2 / analyse=0x3:0x133 / me=umh / subme=11 / psy=1 / psy_rd=1.00:0.00 / mixed_ref=1 / me_range=48 / chroma_me=1 / trellis=2 / 8x8dct=1 / cqm=0 / deadzone=21,11 / fast_pskip=0 / chroma_qp_offset=-2 / threads=3 / sliced_threads=0 / nr=0 / decimate=1 / interlaced=0 / bluray_compat=0 / constrained_intra=0 / bframes=8 / b_pyramid=2 / b_adapt=2 / b_bias=0 / direct=3 / weightb=1 / open_gop=0 / weightp=2 / keyint=250 / keyint_min=25 / scenecut=40 / intra_refresh=0 / rc=2pass / mbtree=0 / bitrate=2300 / ratetol=1.0 / qcomp=0.60 / qpmin=10 / qpmax=51 / qpstep=4 / cplxblur=20.0 / qblur=0.5 / ip_ratio=1.40 / pb_ratio=1.30 / aq=2:1.00
Язык : English
Default : Нет
Forced : Нет
Аудио #1
Идентификатор : 2
Формат : AC-3
Формат/Информация : Audio Coding 3
Расширение режима : CM (complete main)
Идентификатор кодека : A_AC3
Продолжительность : 1 ч. 41 м.
Вид битрейта : Постоянный
Битрейт : 384 Кбит/сек
Каналы : 5 каналов
Расположение каналов : Front: L C R, Side: L R
Частота : 48,0 КГц
Битовая глубина : 16 бит
Метод сжатия : С потерями
Размер потока : 280 Мбайт (12%)
Язык : Russian
Default : Да
Forced : Нет
Аудио #2
Идентификатор : 3
Формат : AC-3
Формат/Информация : Audio Coding 3
Расширение режима : CM (complete main)
Идентификатор кодека : A_AC3
Продолжительность : 1 ч. 41 м.
Вид битрейта : Постоянный
Битрейт : 448 Кбит/сек
Каналы : 6 каналов
Расположение каналов : Front: L C R, Side: L R, LFE
Частота : 48,0 КГц
Битовая глубина : 16 бит
Метод сжатия : С потерями
Размер потока : 326 Мбайт (14%)
Язык : English
Default : Нет
Forced : Нет
Меню
00:00:00.000 : en:Chapter 01
00:08:38.079 : en:Chapter 02
00:18:47.680 : en:Chapter 03
00:27:42.880 : en:Chapter 04
00:39:46.240 : en:Chapter 05
00:48:54.400 : en:Chapter 06
00:56:52.480 : en:Chapter 07
01:08:37.120 : en:Chapter 08
01:16:45.760 : en:Chapter 09
01:23:44.320 : en:Chapter 10
01:32:08.800 : en:Chapter 11
01:39:04.000 : en:Chapter 12





Релиз от:

Авторы релиза:



   Похожие торренты   Торрент   Размер 
В этой теме нет новых непрочитанных сообщений. Откровения пирамид / The Revelation of the Pyramids / La revelation des pyramides (2010) BDRip 720p

7 | 3

3.57 ГБ

В этой теме нет новых непрочитанных сообщений. Откровения пирамид / The Revelation of the Pyramids / La revelation des pyramides (2010) BDRip от HELLYWOOD

126 | 12

1.46 ГБ

В этой теме нет новых непрочитанных сообщений. Откровения пирамид / La révélation des pyramides (2010) BDRip 720p от GYN

13 | 3

5.58 ГБ

В этой теме нет новых непрочитанных сообщений. Откровения пирамид / La revelation des pyramides (2010) DVDRip от Kino@rena

12 | 2

701.89 МБ

В этой теме нет новых непрочитанных сообщений. Откровения пирамид / La revelation des pyramides (2009) BDRip 1080p от NNNB

40 | 4

10.24 ГБ

В этой теме нет новых непрочитанных сообщений. Путь откровения: Начало конца / Revelation Road: The Beginning of the End (2013) BDRip | L2

95 | 10

1.26 ГБ

В этой теме нет новых непрочитанных сообщений. Путь откровения 3 / The Black Rider: Revelation Road (2014) DVDRip | L1

399 | 18

1.46 ГБ




Вы не можете начинать темы
Вы не можете отвечать на сообщения
Вы не можете редактировать свои сообщения
Вы не можете удалять свои сообщения
Вы не можете добавлять вложения

Перейти:  
Для Мосгорсуда, Роскомнадзора и рекламодателей: mosgorsud-torrent[собачка]yandex.ru
 Вход
ppkBB3cker v.2 © 2008-2014 @ PPK
[ Time : 0.560s | 14 Queries | GZIP : Off ]

Торрент трекер RUTOR.IN, Не можете зайти на rutor.org? Какой новый адрес рутор? Какое зеркало рутор? Не работает rutor.org и зеркала? Тогда наш торрент специально для вас. Rutor.in неофициальное зеркало rutor. В случае если у Вас заблокирован rutor или вдруг Вы не можете на него зайти, то Вы без труда сможете скачать бесплатно и без рекламы последние новинки кино, игр, сериалов и прочего у нас, на Rutor.in. Не нужно использовать прокси, чтобы зайти на рутор, достаточно воспользоваться нашим ресурсом. Все новые фильмы, игры, сериалы, книги и музыка за 2013 и 2014 годы через торрент бесплатно. Скачивайте фильмы в хорошем качестве, игры для пк, xbox, playstation без регистрации. У нас вы найдете новые Зарубежные сериалы и Русские сериалы 2013, 2014, 2015 годов. Оставайтесь с нами, качайте любимые фильмы, игры, сериалы, книги и музыку.