img image001 image001 image001 image001 image001 image001 image001 image001 image001 image001 image001 image001 image001 image001 image001

Planets Sun Sun Sun
Статистика раздачи
Автор: Снежана | Размер: 16.06 ГБ | Добавлен: 25 июл 2013
Раздают: 4    Качают: 3
Скачать торрент
Скачать торрент
Описание торрента

СообщениеДобавлено: 25 июл 2013 

#77


Тростниковые жабы: Оккупация в 3Д
Cane Toads: The Conquest 3D

Год выпуска: 2010
Страна: Австралия, США
Студия: Radio Pictures
Слоган: «Люди снова и снова повторяют глупости, борясь с природой»
Жанр: документальный
Продолжительность: 01:23:43

Перевод: Профессиональный (двухголосый закадровый)
Русские субтитры: нет
Режиссер: Марк Льюис / Mark Lewis

Ядовитые тростниковые жабы были завезены в Австралию в 1935 году для борьбы с жуками, разорявшими сахарные плантации. С тех пор жабы размножились так, что стали представлять угрозу всей экосистеме страны.
Передовые технологии позволили создать полный напряжения и юмора фильм с точки зрения жаб. Впервые человек имеет возможность с головой окунуться в мир этих загадочных существ и почувствовать себя жабой, захватившей целый континент и вышедшей на охоту в поисках пропитания…


Проверено на оборудовании:
3D медиаплеер: iconBIT XDS73D
3D телевизор: 3D LED-Телевизор 40" Samsung UE40 ES6850M




Качество: BDRip-AVC, 1080p
Контейнер: MKV
Формат 3D: Half OverUnder / Вертикальная анаморфная стереопара
Порядок ракурсов: левый ракурс первый
Видео кодек: x264
Аудио кодек: AC3
Видео: AVC / High@L4.1 / 23,976 fps / 1920х1080p / 25,8 Mbps / 0.519
Аудио: AC3 / 5.1 ch / 640 kbps / Профессиональный (двухголосый, закадровый) [И. Охлобыстин и Ж. Никонова]
Аудио 2: AC3 / 5.1 ch / 448 kbps / Original BD
Субтитры: отсутствуют
Дополнительно: Сохранены оригинальные чаптеры как на Blu-ray.

Общее
Уникальный идентификатор : 209167144197169928135441136793464773513 (0x9D5C206B6C067D3EB2528CAFAA8E9B89)
Полное имя : F:Скачка торрентCane.Toads.The.Conquest.3D.2010.BDRip1080p.HalfOverUnder.(Killbrain).mkv
Формат : Matroska
Версия формата : Version 2
Размер файла : 16,1 Гбайт
Продолжительность : 1 ч. 23 м.
Общий поток : 27,5 Мбит/сек
Название фильма : Cane Toads: The Conquest 3D (2010) by Killbrain
Дата кодирования : UTC 2012-10-25 15:14:57
Программа кодирования : mkvmerge v5.8.0 ('No Sleep / Pillow') built on Sep 2 2012 15:37:04
Библиотека кодирования : libebml v1.2.3 + libmatroska v1.3.0

Видео
Идентификатор : 1
Формат : AVC
Формат/Информация : Advanced Video Codec
Профиль формата : High@L4.1
Параметр CABAC формата : Да
Параметр ReFrames формата : 4 кадра
Идентификатор кодека : V_MPEG4/ISO/AVC
Продолжительность : 1 ч. 23 м.
Битрейт : 25,8 Мбит/сек
Ширина : 1920 пикселей
Высота : 1080 пикселей
Соотношение сторон : 16:9
Режим частоты кадров : Постоянный
Частота кадров : 23,976 кадра/сек
Цветовое пространство : YUV
Субдискретизация насыщенности : 4:2:0
Битовая глубина : 8 бит
Тип развёртки : Прогрессивная
Бит/(Пиксели*Кадры) : 0.519
Размер потока : 15,1 Гбайт (94%)
Заголовок : Cane Toads: The Conquest 3D (2010)
Библиотека кодирования : x264 core 128 r2216 198a7ea
Настройки программы : cabac=1 / ref=4 / deblock=1:-3:-3 / analyse=0x3:0x113 / me=umh / subme=9 / psy=1 / psy_rd=1.00:0.15 / mixed_ref=1 / me_range=16 / chroma_me=1 / trellis=2 / 8x8dct=1 / cqm=0 / deadzone=21,11 / fast_pskip=1 / chroma_qp_offset=-3 / threads=3 / lookahead_threads=1 / sliced_threads=0 / slices=4 / nr=0 / decimate=1 / interlaced=0 / bluray_compat=0 / constrained_intra=0 / bframes=6 / b_pyramid=2 / b_adapt=2 / b_bias=0 / direct=3 / weightb=1 / open_gop=0 / weightp=2 / keyint=240 / keyint_min=23 / scenecut=40 / intra_refresh=0 / rc_lookahead=60 / rc=crf / mbtree=1 / crf=17.0 / qcomp=0.70 / qpmin=0 / qpmax=69 / qpstep=4 / vbv_maxrate=40000 / vbv_bufsize=40000 / crf_max=0.0 / nal_hrd=none / frame-packing=4 / ip_ratio=1.40 / aq=1:0.70
Язык : English
Default : Да
Forced : Нет

Аудио #1
Идентификатор : 2
Формат : AC-3
Формат/Информация : Audio Coding 3
Расширение режима : CM (complete main)
Параметр Endianness формата : Big
Идентификатор кодека : A_AC3
Продолжительность : 1 ч. 23 м.
Вид битрейта : Постоянный
Битрейт : 640 Кбит/сек
Каналы : 6 каналов
Расположение каналов : Front: L C R, Side: L R, LFE
Частота : 48,0 КГц
Битовая глубина : 16 бит
Метод сжатия : С потерями
Размер потока : 383 Мбайт (2%)
Заголовок : AC3 / 5.1 ch / 640 kbps / Профессиональный (двухголосый, закадровый) [И. Охлобыстин и Ж. Никонова]
Язык : Russian
Default : Да
Forced : Нет

Аудио #2
Идентификатор : 3
Формат : AC-3
Формат/Информация : Audio Coding 3
Расширение режима : CM (complete main)
Параметр Endianness формата : Big
Идентификатор кодека : A_AC3
Продолжительность : 1 ч. 23 м.
Вид битрейта : Постоянный
Битрейт : 448 Кбит/сек
Каналы : 6 каналов
Расположение каналов : Front: L C R, Side: L R, LFE
Частота : 48,0 КГц
Битовая глубина : 16 бит
Метод сжатия : С потерями
Размер потока : 268 Мбайт (2%)
Заголовок : AC3 / 5.1 ch / 448 kbps / Original BD
Язык : English
Default : Нет
Forced : Нет

Меню
00:00:00.000 : :Chapter 01
00:09:44.250 : :Chapter 02
00:17:51.403 : :Chapter 03
00:24:47.694 : :Chapter 04
00:30:17.732 : :Chapter 05
00:38:21.299 : :Chapter 06
00:45:21.301 : :Chapter 07
00:53:38.798 : :Chapter 08
01:00:55.860 : :Chapter 09
01:07:45.644 : :Chapter 10
01:14:52.112 : :Chapter 11
01:21:29.885 : :Chapter 12



   Похожие торренты   Торрент   Размер 
В этой теме нет новых непрочитанных сообщений. Тростниковые жабы: Оккупация / Cane Toads: The Conquest (2010) BDRip от HQCLUB

2 | 2

1.45 ГБ

В этой теме нет новых непрочитанных сообщений. Тростниковые жабы: Оккупация 3D / Cane Toads: The Conquest 3D (2010) BDRip от HitWay | P2

30 | 2

1.47 ГБ

В этой теме нет новых непрочитанных сообщений. Тростниковые жабы: Оккупация / Cane Toads: The Conquest (2010) HDTVRip

1 | 2

1.4 ГБ

В этой теме нет новых непрочитанных сообщений. Тростниковые жабы: Оккупация 3D / Cane Toads: The Conquest 3D (2010) SATRip [Анаглиф]

0 | 1

1.32 ГБ

В этой теме нет новых непрочитанных сообщений. Пила 7 / Saw 7 (2010) BDRip 1080 от SLAVAANGEL | 3D-Video

43 | 7

13.46 ГБ

В этой теме нет новых непрочитанных сообщений. Гробовщик / The Mortician (2010) BDRip 1080 | 3D-Video от LobanOFF

2 | 4

4.2 ГБ

В этой теме нет новых непрочитанных сообщений. Покорение неба 3D с Дэвидом Аттенборо / David Attenborough's Conquest of the Skies 3D (2014) BDRip 1080p от Ash61 | 3D-Video | halfOU | P1

131 | 25

18.91 ГБ




Вы не можете начинать темы
Вы не можете отвечать на сообщения
Вы не можете редактировать свои сообщения
Вы не можете удалять свои сообщения
Вы не можете добавлять вложения

Перейти:  
Для Мосгорсуда, Роскомнадзора и рекламодателей: mosgorsud-torrent[собачка]yandex.ru
 Вход
ppkBB3cker v.2 © 2008-2014 @ PPK
[ Time : 0.024s | 14 Queries | GZIP : Off ]

Торрент трекер RUTOR.IN, Не можете зайти на rutor.org? Какой новый адрес рутор? Какое зеркало рутор? Не работает rutor.org и зеркала? Тогда наш торрент специально для вас. Rutor.in неофициальное зеркало rutor. В случае если у Вас заблокирован rutor или вдруг Вы не можете на него зайти, то Вы без труда сможете скачать бесплатно и без рекламы последние новинки кино, игр, сериалов и прочего у нас, на Rutor.in. Не нужно использовать прокси, чтобы зайти на рутор, достаточно воспользоваться нашим ресурсом. Все новые фильмы, игры, сериалы, книги и музыка за 2013 и 2014 годы через торрент бесплатно. Скачивайте фильмы в хорошем качестве, игры для пк, xbox, playstation без регистрации. У нас вы найдете новые Зарубежные сериалы и Русские сериалы 2013, 2014, 2015 годов. Оставайтесь с нами, качайте любимые фильмы, игры, сериалы, книги и музыку.