img image001 image001 image001 image001 image001 image001 image001 image001 image001 image001 image001 image001 image001 image001 image001

Planets Sun Sun Sun
Статистика раздачи
Автор: Снежана | Размер: 16.79 ГБ | Добавлен: 25 июл 2013
Раздают: 18    Качают: 7
Скачать торрент
Скачать торрент
Описание торрента

СообщениеДобавлено: 25 июл 2013 

#77

Информация о фильме
Название: BBC: Саймон Шама - История Британии
Оригинальное название: BBC: Simon Schama A History Of Britain
Год выпуска: 2000-2002
Жанр: Исторический, документальная реконструкция
Режиссер: Джэми Мьюир, Лиз Хартфорд, Клер Беван, Мартина Холл, Йен Бремнер
В ролях: Майкл Кичен, Сэмьюэл Уэст, Линдсэй Дункан, Дэвид Трелфолл, Джордж Энтон, Мэттью Риз, Энтони Бейт, Тимоти Уэст, Эмилия Фокс, Джерри О`Брайэн, Дэвид Кэри, Джанет Эллис, Дермот Керриган, Уильям Грин, Сидни Нотт, Джейн Лапотэйр, Рэй Лоннен, Люси Панч, Найджел Терри, Билл Патерсон, Эрион Бакаре, Ричард Гриффитс, Дэвид Соул, Джеймс Болэм, Уильям Чубб, Кеннет Крэнэм, Джонатан Прайс, Джульет Стивенсон, Роберт Баферст, Анджела Даун, Прунелла Скейлс, Джеймс Уилби, Оливер Форд Дэвис, Пол Фримен, Уилл Найтли, Джулиан Вэдхэм, Чарльз Дэнс, Хиткоут Уильямс

О фильме: Истории в целом и, в частности, британской истории, с присущими ей захватывающими поворотами, необходимо уделить особое внимание, чтобы понять развитие всего мира. Подумайте об Истории Британии как о путешествии в самопознание, возможности увидеть себя в зеркале времен. Только зная, кем мы были, можно понять свое место в истории и даже понять свою нацию.

01 серия: Начало / Beginnings (3100 г. до н.э. – 1000 н.э.) Саймон Шама начинает свой рассказ из деревушки Скара Брей, в Оркни, существовавшей в каменном веке. На протяжении следующих четырех тысяч лет римляне, саксы, викинги и христиане прибывали, селились и оставляли свой след в истории, и в последствии становились нациями Британии.
02 серия: Завоевание! / Conquest! (1000–1087) 1066 год - не самый лучший для британской истории. Все изменилось за девять часов, пока шла битва при Гастингсе. Англо-саксонская Англия стала Нормандской, и следующие 300 лет ее судьба была в руках французских правителей.
03 серия: Династия / Dynasty (1087–1216) Нет более впечатляющей саги, чем сага о враждующей династии: властный отец, красивая, но коварная мать и ссорящиеся, кровожадные сыновья. За годы нормандского завоевания именно эта драма была поставлена на сцене британской истории.
04 серия: Нации / Nations (1216–1348) Эпический рассказ о том, как появлялись нации Британии благодаря "Эдуарду Длинноногому" - Королю Англии, Эдуарду I, а также о их сущности, дошедшей и до наших дней.
05 серия: Король по имени Смерть / King Death (1348–1500) Потребовалось всего шесть лет, чтобы чума опустошила Британские острова. Ее воздействие сказалось на целых поколениях. Но из пепла этой трагедии возник нежданный и уникальный класс англичан.
06 серия: Тлеющая Убежденность / Burning Convictions (1500–1558) В этой главе Саймон Шама рассказывает о перевороте, во время которого страна, прославившаяся своим благочестием, и чей король называл себя Защитником Веры, превращается в одного из самых агрессивных поборников новой протестантской веры.
07 серия: Королева / The Body of the Queen (1558–1603) Это история о двух королевах - Елизавете I, превосходном политике, и Шотландской Королеве Марии. Это также история о рождении нации.
08 серия: Британские Войны / The British Wars (1603–1649) Бурные гражданские войны ранних лет семнадцатого столетия привели к двум событиям, ставшим уникальными для британской истории - публичная казнь короля и создание республики. Шама рассказывает о жестокой войне, которая разорвала страну на две половины и создала новую Британию - разделенную политикой и религией, и управляемую первой, по-настоящему современной армией, которая боролась за идеологию, а не за отдельных лидеров.
09 серия: Революции / Revolutions (1649–1689) Политические и религиозные революции настигли Британию после казни Карла I, когда Британия была безрадостной республикой без короля, управляемой Оливером Кромвелем. Его правление было таким непопулярным, что для многих возвращение монархии после его смерти стало облегчением. Однако Кромвель был человеком со взглядом в будущее и осуществил много важных реформ.
10 серия: Корпорация Британия / Britannia Incorporated (1690–1750) Отношения между Англией и Шотландией никогда не были хуже с началом нового столетия. А спустя 50 лет две страны будут строить будущее, основываясь на взаимной выгоде и сотрудничестве. Эта новая Британия была основана на деньгах, а не на Вере.
11 серия: Неправильная Империя / The Wrong Empire (1750–1800) Неправильная Империя - это страшная история о том, как маленькая группа островов стала доминировать над миром; история о смелости и исследовании, но также об эксплуатации и конфликте.
12 серия: Силы Природы / Forces of Nature (1780–1832) В Британии никогда не было такой революции, которую пережила Франция в 1789 году, но было нечто подобное. В середине 1770-х страна была одурманена большим всплеском политической энергии. Заново открывая дикую местность Англии, интеллектуалы "поколения романтизма" также раскрыли мощь обычного человека, превратив природу в революционную силу.
13 серия: Виктория и ее Сестры / Dynasty (1830–1910) С приходом Викторианской эпохи массовое внедрение технологий и процесса индустриализации быстро изменило как ландшафт, так и социальную структуру целой страны. В намного большей степени, чем когда-либо, центральную роль в формировании общества сыграли женщины.
14 серия: Империя Добрых Намерений / The Empire of Good Intentions (1830–1925) Жизнь в империи добрых намерений регламентирована до мелочей. Подданным либеральной державы от Ирландии до Индии гарантируется высокий уровень цивилизации и материального благосостояния. Но подданные видят лишь насилие и голод.
15 серия: Два Уинстона / The Two Winstons (1910–1965) В финальном эпизоде Шама исследует значимое присутствие прошлого в Британии XX века и борьбу лидеров, стремящихся создать новое будущее нации. Ключевые фигуры XX столетия, Черчилль и Оруэлл, различными способами исследуют жизнь с точки зрения имперского прошлого, а также описывают и формируют историю.


Выпущено: Великобритания / BBC
Продолжительность: 15 x ~ 00:58:43
Перевод: Профессиональный одноголосый
Субтитры: Английские

Файл
Кодек: Н264
Качество: DVDRip (AVC)
Видео: MPEG-4 AVC, ~ 2270 Кбит/с, 1008x576
Звук: Русский, английский (AC3, 2 ch, 224 Кбит/с)

Семпл

General
Complete name : BBC_Istorija.Britanii.(01.sej.iz.15).Nachalo.2000.x264.DVDRip(AVC)-Valegorov.mkv
Format : Matroska
File size : 1.07 GiB
Duration : 59mn 7s
Overall bit rate : 2 583 Kbps
Movie name : BBC. 2000. A History of Britain 01. Beginnings [ve]
Encoded date : UTC 2012-08-04 19:22:14
Writing application : mkvmerge v2.1.0 ('Another Place To Fall') built on Aug 19 2007 13:40:07
Writing library : libebml v0.7.7 + libmatroska v0.8.1

Video
ID : 1
Format : AVC
Format/Info : Advanced Video Codec
Format profile : High@L4.1
Format settings, CABAC : Yes
Format settings, ReFrames : 7 frames
Muxing mode : Container profile=Unknown@4.1
Codec ID : V_MPEG4/ISO/AVC
Duration : 59mn 7s
Bit rate : 2 084 Kbps
Nominal bit rate : 2 270 Kbps
Width : 1 008 pixels
Height : 576 pixels
Display aspect ratio : 16:9
Frame rate : 25.000 fps
Color space : YUV
Chroma subsampling : 4:2:0
Bit depth : 8 bits
Scan type : Progressive
Bits/(Pixel*Frame) : 0.144
Stream size : 881 MiB (81%)
Title : BBC. 2000. A History of Britain 01. Beginnings [ve]
Writing library : x264 core 92 r1510 33d382a
Encoding settings : cabac=1 / ref=7 / deblock=1:-3:-3 / analyse=0x3:0x133 / me=umh / subme=10 / psy=1 / psy_rd=1.00:0.10 / mixed_ref=1 / me_range=64 / chroma_me=1 / trellis=2 / 8x8dct=1 / cqm=0 / deadzone=21,11 / fast_pskip=0 / chroma_qp_offset=-3 / threads=3 / sliced_threads=0 / nr=0 / decimate=1 / interlaced=0 / constrained_intra=0 / bframes=3 / b_pyramid=2 / b_adapt=2 / b_bias=0 / direct=3 / wpredb=1 / wpredp=2 / keyint=250 / keyint_min=25 / scenecut=40 / intra_refresh=0 / rc_lookahead=50 / rc=2pass / mbtree=1 / bitrate=2270 / ratetol=1.0 / qcomp=0.60 / qpmin=10 / qpmax=51 / qpstep=4 / cplxblur=20.0 / qblur=0.5 / ip_ratio=1.40 / aq=1:1.00
Language : English

Audio #1
ID : 2
Format : AC-3
Format/Info : Audio Coding 3
Mode extension : CM (complete main)
Codec ID : A_AC3
Duration : 59mn 7s
Bit rate mode : Constant
Bit rate : 224 Kbps
Channel(s) : 2 channels
Channel positions : Front: L R
Sampling rate : 48.0 KHz
Bit depth : 16 bits
Stream size : 94.7 MiB (9%)
Language : Russian

Audio #2
ID : 3
Format : AC-3
Format/Info : Audio Coding 3
Mode extension : CM (complete main)
Codec ID : A_AC3
Duration : 59mn 7s
Bit rate mode : Constant
Bit rate : 224 Kbps
Channel(s) : 2 channels
Channel positions : Front: L R
Sampling rate : 48.0 KHz
Bit depth : 16 bits
Stream size : 94.7 MiB (9%)
Language : English

Text
ID : 4
Format : UTF-8
Codec ID : S_TEXT/UTF8
Codec ID/Info : UTF-8 Plain Text
Language : English

General
Complete name : BBC_Istorija.Britanii.(02.sej.iz.15).Zavoevanie.2000.x264.DVDRip(AVC)-Valegorov.mkv
Format : Matroska
File size : 1.22 GiB
Duration : 58mn 58s
Overall bit rate : 2 970 Kbps
Movie name : BBC. 2000. A History of Britain 02. Conquest! [ve]
Encoded date : UTC 2012-08-04 19:34:52
Writing application : mkvmerge v2.1.0 ('Another Place To Fall') built on Aug 19 2007 13:40:07
Writing library : libebml v0.7.7 + libmatroska v0.8.1

Video
ID : 1
Format : AVC
Format/Info : Advanced Video Codec
Format profile : High@L4.1
Format settings, CABAC : Yes
Format settings, ReFrames : 7 frames
Muxing mode : Container profile=Unknown@4.1
Codec ID : V_MPEG4/ISO/AVC
Duration : 58mn 58s
Bit rate : 2 463 Kbps
Width : 1 008 pixels
Height : 576 pixels
Display aspect ratio : 16:9
Frame rate : 25.000 fps
Color space : YUV
Chroma subsampling : 4:2:0
Bit depth : 8 bits
Scan type : Progressive
Bits/(Pixel*Frame) : 0.170
Stream size : 1.01 GiB (83%)
Title : BBC. 2000. A History of Britain 02. Conquest! [ve]
Language : English

Audio #1
ID : 2
Format : AC-3
Format/Info : Audio Coding 3
Mode extension : CM (complete main)
Codec ID : A_AC3
Duration : 58mn 58s
Bit rate mode : Constant
Bit rate : 224 Kbps
Channel(s) : 2 channels
Channel positions : Front: L R
Sampling rate : 48.0 KHz
Bit depth : 16 bits
Stream size : 94.5 MiB (8%)
Language : Russian

Audio #2
ID : 3
Format : AC-3
Format/Info : Audio Coding 3
Mode extension : CM (complete main)
Codec ID : A_AC3
Duration : 58mn 58s
Bit rate mode : Constant
Bit rate : 224 Kbps
Channel(s) : 2 channels
Channel positions : Front: L R
Sampling rate : 48.0 KHz
Bit depth : 16 bits
Stream size : 94.5 MiB (8%)
Language : English

Text
ID : 4
Format : UTF-8
Codec ID : S_TEXT/UTF8
Codec ID/Info : UTF-8 Plain Text
Language : English



Релиз от: Valegorov



   Похожие торренты   Торрент   Размер 
В этой теме нет новых непрочитанных сообщений. BBC: Замки: История укреплений Британии / Castles: Britain's Fortified History [01-02 из 3] (2014) HDTVRip от Kaztorrents | P2

7 | 0

1.33 ГБ

В этой теме нет новых непрочитанных сообщений. BBC: Замки: История укреплений Британии / Castles: Britain's Fortified History [01-02 из 3] (2014) HDTVRip от Kaztorrents | P2

25 | 7

1.99 ГБ

В этой теме нет новых непрочитанных сообщений. Саймон: Английский легионер / Simon: An English Legionnaire (2002) BDRip | А | Сербин

59 | 9

1.46 ГБ

В этой теме нет новых непрочитанных сообщений. Саймон: Английский легионер / Simon: An English Legionnaire (2002) BDRip-AVC | А | Сербин

83 | 10

1.45 ГБ

В этой теме нет новых непрочитанных сообщений. Саймон: Английский легионер / Simon: An English Legionnaire (2002) BDRip 1080p | Сербин

0 | 2

10.09 ГБ

В этой теме нет новых непрочитанных сообщений. Саймон говорит / Simon Says (2006) DVDRip от brazolargo

0 | 1

612.68 МБ

В этой теме нет новых непрочитанных сообщений. Саймон говорит / Simon Says (2006) DVDRip от R.G. Mega Best | P2

1 | 10

1.37 ГБ




Вы не можете начинать темы
Вы не можете отвечать на сообщения
Вы не можете редактировать свои сообщения
Вы не можете удалять свои сообщения
Вы не можете добавлять вложения

Перейти:  
Для Мосгорсуда, Роскомнадзора и рекламодателей: mosgorsud-torrent[собачка]yandex.ru
 Вход
ppkBB3cker v.2 © 2008-2014 @ PPK
[ Time : 0.514s | 14 Queries | GZIP : Off ]

Торрент трекер RUTOR.IN, Не можете зайти на rutor.org? Какой новый адрес рутор? Какое зеркало рутор? Не работает rutor.org и зеркала? Тогда наш торрент специально для вас. Rutor.in неофициальное зеркало rutor. В случае если у Вас заблокирован rutor или вдруг Вы не можете на него зайти, то Вы без труда сможете скачать бесплатно и без рекламы последние новинки кино, игр, сериалов и прочего у нас, на Rutor.in. Не нужно использовать прокси, чтобы зайти на рутор, достаточно воспользоваться нашим ресурсом. Все новые фильмы, игры, сериалы, книги и музыка за 2013 и 2014 годы через торрент бесплатно. Скачивайте фильмы в хорошем качестве, игры для пк, xbox, playstation без регистрации. У нас вы найдете новые Зарубежные сериалы и Русские сериалы 2013, 2014, 2015 годов. Оставайтесь с нами, качайте любимые фильмы, игры, сериалы, книги и музыку.