img image001 image001 image001 image001 image001 image001 image001 image001 image001 image001 image001 image001 image001 image001 image001

Planets Sun Sun Sun
Статистика раздачи
Автор: Снежана | Размер: 6.52 ГБ | Добавлен: 24 июл 2013
Раздают: 6    Качают: 1
Скачать торрент
Скачать торрент
Описание торрента

СообщениеДобавлено: 24 июл 2013 

#77

Информация о фильме
Название: Короли и королевы
Оригинальное название: Kings and Queens
Год выпуска: 2002
Жанр: Документальный, исторический
Режиссер: Мэрион Милн
В ролях: Найджел Спайви, Шон Френсис Джордж, Камилла Матиас, Роб Стоун

О фильме: Реальные драмы величайших монархов Британии. За тысячу лет британская монархия прошла свое развитие от жестоких королей завоевателей до милосердных политических глав государства. Среди них - одни из самых удивительных исторических фигур - завоеватели, убийцы, любовники и интриганы. Захватывающие истории о них - от "убийства" Томаса А'Бекета королем Генри II до потери Америки Джорджем III - являются национальным достоянием. Найджел Спайви, доктор Кембриджского Университета, повествует о двенадцати великих королях и королевах, живших в тысячелетии жестокости, романтики, интриг и противоречий. С помощью очевидных фактов британской истории и восстановленных материалов он собирает по частям события, сражения и мотивы, сформировавшие великие судьбы.

01. Вильгельм Завоеватель / William the Conqueror, 1066–1087
02. Генрих II / Henry the Second, 1154–1189
03. Эдуард I / Edward the First, 1272–1307
04. Генрих V / Henry the Fifth, 1413-1422
05. Ричард III / Richard the Third, 1483-1485
06. Генрих VIII / Henry the Eighth, 1509-1547
07. Елизавета I / Elizabeth the First, 1558-1603
08. Карл I / Charles the First, 1625-1649
09. Карл II / Charles the Second, 1660-1685
10. Георг III / George the Third, 1760-1820
11. Виктория / Victoria, 1837-1901
12. Елизавета II / Elizabeth the Second, 1952–Present


Выпущено: Великобритания / 3BM Television, BBC
Продолжительность: 12 х ~ 00:23:00
Перевод: Профессиональный одноголосый

Файл
Кодек: Н264
Качество: DVDRip (AVC)
Видео: MPEG-4 AVC, ~ 2800 Кбит/с, 1008x568
Звук: Русский, английский (AC3, 2 ch, 224 Кбит/с)

Семпл

General
Complete name : BBC_Koroli.i.korolevi.(01.ser.iz.12).Viljgeljm-Zavoevatelj.2002.DVDRip(AVC)-Valegorov.mkv
Format : Matroska
File size : 541 MiB
Duration : 23mn 15s
Overall bit rate : 3 254 Kbps
Movie name : BBC 2002 Kings and Queens 01.William the Conqueror [ve]
Encoded date : UTC 2012-10-29 17:43:48
Writing application : mkvmerge v2.1.0 ('Another Place To Fall') built on Aug 19 2007 13:40:07
Writing library : libebml v0.7.7 + libmatroska v0.8.1

Video
ID : 1
Format : AVC
Format/Info : Advanced Video Codec
Format profile : High@L4.1
Format settings, CABAC : Yes
Format settings, ReFrames : 7 frames
Muxing mode : Container profile=Unknown@4.1
Codec ID : V_MPEG4/ISO/AVC
Duration : 23mn 15s
Bit rate : 2 741 Kbps
Nominal bit rate : 2 882 Kbps
Width : 1 008 pixels
Height : 568 pixels
Display aspect ratio : 16:9
Frame rate : 25.000 fps
Color space : YUV
Chroma subsampling : 4:2:0
Bit depth : 8 bits
Scan type : Progressive
Bits/(Pixel*Frame) : 0.192
Stream size : 456 MiB (84%)
Title : BBC 2002 Kings and Queens 01.William the Conqueror [ve]
Writing library : x264 core 92 r1510 33d382a
Encoding settings : cabac=1 / ref=7 / deblock=1:-1:-1 / analyse=0x3:0x133 / me=umh / subme=10 / psy=1 / psy_rd=1.00:0.10 / mixed_ref=1 / me_range=64 / chroma_me=1 / trellis=2 / 8x8dct=1 / cqm=0 / deadzone=21,11 / fast_pskip=0 / chroma_qp_offset=-3 / threads=3 / sliced_threads=0 / nr=0 / decimate=1 / interlaced=0 / constrained_intra=0 / bframes=3 / b_pyramid=2 / b_adapt=2 / b_bias=0 / direct=3 / wpredb=1 / wpredp=2 / keyint=250 / keyint_min=25 / scenecut=40 / intra_refresh=0 / rc_lookahead=50 / rc=2pass / mbtree=1 / bitrate=2882 / ratetol=1.0 / qcomp=0.60 / qpmin=10 / qpmax=51 / qpstep=4 / cplxblur=20.0 / qblur=0.5 / ip_ratio=1.40 / aq=1:1.00
Language : English

Audio #1
ID : 2
Format : AC-3
Format/Info : Audio Coding 3
Mode extension : CM (complete main)
Codec ID : A_AC3
Duration : 23mn 15s
Bit rate mode : Constant
Bit rate : 224 Kbps
Channel(s) : 2 channels
Channel positions : Front: L R
Sampling rate : 48.0 KHz
Bit depth : 16 bits
Stream size : 37.3 MiB (7%)
Language : Russian

Audio #2
ID : 3
Format : AC-3
Format/Info : Audio Coding 3
Mode extension : CM (complete main)
Codec ID : A_AC3
Duration : 23mn 15s
Bit rate mode : Constant
Bit rate : 224 Kbps
Channel(s) : 2 channels
Channel positions : Front: L R
Sampling rate : 48.0 KHz
Bit depth : 16 bits
Stream size : 37.3 MiB (7%)
Language : English




Релиз от: Valegorov



   Похожие торренты   Торрент   Размер 
В этой теме нет новых непрочитанных сообщений. BBC: Короли и королевы / BBC: Kings and Queens (2002) DVDRip

10 | 67

4.1 ГБ

В этой теме нет новых непрочитанных сообщений. BBC: Короли и королевы / Kings and Queens (2002) 2*DVD9

0 | 1

15.36 ГБ

В этой теме нет новых непрочитанных сообщений. Король и четыре королевы / The King and Four Queens (1956) DVDRip от egoleshik

18 | 3

1.34 ГБ

В этой теме нет новых непрочитанных сообщений. Королевы саванны / Queens Of The Savannah [01-03] (2009) HDTVRip

2 | 2

2.06 ГБ

В этой теме нет новых непрочитанных сообщений. Королевы крика / Scream Queens [S01] (2015) WEB-DL 1080p | NewStudio

58 | 66

23.33 ГБ

В этой теме нет новых непрочитанных сообщений. Королевы гадюк / Viper Queens (2016) SATRip-AVC от KinoHitHD | D

21 | 7

579.41 МБ

В этой теме нет новых непрочитанных сообщений. Королевы Крика / Scream Queens [S01] (2015) WEB-DLRip | BaiBaKo

366 | 142

7.72 ГБ




Вы не можете начинать темы
Вы не можете отвечать на сообщения
Вы не можете редактировать свои сообщения
Вы не можете удалять свои сообщения
Вы не можете добавлять вложения

Перейти:  
Для Мосгорсуда, Роскомнадзора и рекламодателей: mosgorsud-torrent[собачка]yandex.ru
 Вход
ppkBB3cker v.2 © 2008-2014 @ PPK
[ Time : 0.029s | 16 Queries | GZIP : Off ]

cron