img image001 image001 image001 image001 image001 image001 image001 image001 image001 image001 image001 image001 image001 image001 image001

Planets Sun Sun Sun
Статистика раздачи
Автор: Снежана | Размер: 738.56 МБ | Добавлен: 25 июл 2013
Раздают: 1    Качают: 3
Скачать торрент
Скачать торрент
Описание торрента

СообщениеДобавлено: 25 июл 2013 



Информация о фильме
Название: Уроки тьмы
Оригинальное название: Lektionen in Finsternis / Lessons of Darkness
Год выхода: 1992
Жанр: Документальный, научно-познавательный, природа, исследование,
Режиссер: Werner Herzog
В ролях: Люди

О фильме:
1992 год - Кувейт - Персидский Залив.
Фильма снят как документальный. На фоне погибающей природы, пылающих нефтяных озер и прекрасной музыки звучат голоса комментаторов, показаны интервью с пострадавшими в войне.
Херцог проводит аналогии с Апокалипсисом и комментирует деструктивную природу человека.

Страна: Germany, France, United Kingdom.
Студия: Canal+ Première Werner Herzog Filmproduktion
Продолжительность: 54:12
Перевод: Любительский (одноголосый закадровый)

Файл
Кодек: DivX
Качество: DVDRip
Видео: 672x384 23.976fps
Звук:
Audio: MP3 44100Hz stereo 146kbps [Stream 01]
Audio: MP3 44100Hz stereo 137kbps [Stream 02]
Субтитры: русские
General
Complete name : Уроки тьмы (Херцог)Les_Of_Dark_2CH_DrF.avi
Format : AVI
Format/Info : Audio Video Interleave
File size : 739 MiB
Duration : 54mn 12s
Overall bit rate mode : Variable
Overall bit rate : 1 905 Kbps
Director : by Dr.F
Writing application : VirtualDubMod 1.5.10.2 (build 2542/release)
Writing library : VirtualDubMod build 2542/release

Video
ID : 0
Format : MPEG-4 Visual
Format settings, BVOP : 1
Format settings, QPel : No
Format settings, GMC : 2 warppoints
Format settings, Matrix : Default (H.263)
Muxing mode : Packed bitstream
Codec ID : DX50
Codec ID/Hint : DivX 5
Duration : 54mn 12s
Bit rate : 1 601 Kbps
Width : 672 pixels
Height : 384 pixels
Display aspect ratio : 16:9
Frame rate : 23.976 fps
Color space : YUV
Chroma subsampling : 4:2:0
Bit depth : 8 bits
Scan type : Progressive
Compression mode : Lossy
Bits/(Pixel*Frame) : 0.259
Stream size : 621 MiB (84%)
Writing library : DivX 5.1.1 (Maupiti) (UTC 2003-11-19)

Audio #1
ID : 1
Format : MPEG Audio
Format version : Version 1
Format profile : Layer 3
Mode : Joint stereo
Mode extension : MS Stereo
Codec ID : 55
Codec ID/Hint : MP3
Duration : 54mn 12s
Bit rate mode : Variable
Bit rate : 147 Kbps
Minimum bit rate : 128 Kbps
Channel(s) : 2 channels
Sampling rate : 44.1 KHz
Compression mode : Lossy
Stream size : 56.9 MiB (8%)
Alignment : Aligned on interleaves
Interleave, duration : 26 ms (0.63 video frame)
Interleave, preload duration : 454 ms
Writing library : LAME3.98b
Encoding settings : -m j -V 4 -q 0 -lowpass 17.5 --vbr-new -b 128

Audio #2
ID : 2
Format : MPEG Audio
Format version : Version 1
Format profile : Layer 3
Mode : Joint stereo
Mode extension : MS Stereo
Codec ID : 55
Codec ID/Hint : MP3
Duration : 54mn 12s
Bit rate mode : Variable
Bit rate : 138 Kbps
Minimum bit rate : 128 Kbps
Channel(s) : 2 channels
Sampling rate : 44.1 KHz
Compression mode : Lossy
Stream size : 53.4 MiB (7%)
Alignment : Aligned on interleaves
Interleave, duration : 26 ms (0.63 video frame)
Interleave, preload duration : 138 ms
Writing library : LAME3.98b
Encoding settings : -m j -V 4 -q 0 -lowpass 17.5 --vbr-new -b 128












   Похожие торренты   Торрент   Размер 
В этой теме нет новых непрочитанных сообщений. Частные уроки / Private Lessons (1981) DVDRip

35 | 24

1.37 ГБ

В этой теме нет новых непрочитанных сообщений. Частные уроки / Private Lessons (1981) DVDRip | A

159 | 21

1.46 ГБ

В этой теме нет новых непрочитанных сообщений. Уроки гармонии / Harmony Lessons (2013) DVDRip | Sub

64 | 11

1.46 ГБ

В этой теме нет новых непрочитанных сообщений. Зловещие мертвецы 3: Армия тьмы / Army of Darkness (1992) DVDRip от Chesterfield

294 | 10

1.48 ГБ

В этой теме нет новых непрочитанных сообщений. Уроки вождения / Driving Lessons (2006) DVDRip by Rom4uk89

30 | 3

1.37 ГБ

В этой теме нет новых непрочитанных сообщений. Тёлкохранители против сил тьмы / Erkan & Stefan gegen die Mächte der Finsternis (2002) DVDRip от FilmRus | P

239 | 50

1.45 ГБ

В этой теме нет новых непрочитанных сообщений. Зловещие мертвецы 3: Армия тьмы / Army of Darkness (1992) BDRip от HQCLUB

49 | 33

1.45 ГБ




Вы не можете начинать темы
Вы не можете отвечать на сообщения
Вы не можете редактировать свои сообщения
Вы не можете удалять свои сообщения
Вы не можете добавлять вложения

Перейти:  
Для Мосгорсуда, Роскомнадзора и рекламодателей: mosgorsud-torrent[собачка]yandex.ru
 Вход
ppkBB3cker v.2 © 2008-2014 @ PPK
[ Time : 0.056s | 14 Queries | GZIP : Off ]

Торрент трекер RUTOR.IN, Не можете зайти на rutor.org? Какой новый адрес рутор? Какое зеркало рутор? Не работает rutor.org и зеркала? Тогда наш торрент специально для вас. Rutor.in неофициальное зеркало rutor. В случае если у Вас заблокирован rutor или вдруг Вы не можете на него зайти, то Вы без труда сможете скачать бесплатно и без рекламы последние новинки кино, игр, сериалов и прочего у нас, на Rutor.in. Не нужно использовать прокси, чтобы зайти на рутор, достаточно воспользоваться нашим ресурсом. Все новые фильмы, игры, сериалы, книги и музыка за 2013 и 2014 годы через торрент бесплатно. Скачивайте фильмы в хорошем качестве, игры для пк, xbox, playstation без регистрации. У нас вы найдете новые Зарубежные сериалы и Русские сериалы 2013, 2014, 2015 годов. Оставайтесь с нами, качайте любимые фильмы, игры, сериалы, книги и музыку.