img image001 image001 image001 image001 image001 image001 image001 image001 image001 image001 image001 image001 image001 image001 image001

Planets Sun Sun Sun
Статистика раздачи
Автор: Снежана | Размер: 2.53 ГБ | Добавлен: 25 июл 2013
Раздают: 242    Качают: 7
Скачать торрент
Скачать торрент
Описание торрента

СообщениеДобавлено: 25 июл 2013 

#77

Информация о фильме
Название: Удивительный океан
Оригинальное название: Amazing Ocean
Год выпуска: 2012
Жанр: Документальный, подводный мир
Режиссер: Тимо Дж. Мэйер, Бенжамин Ичер

О фильме: Полюбуйтесь маленькими стайками разноцветных рыбок, которые, кажется, вот-вот заплывут в вашу гостиную! Вы сможете рассмотреть вблизи кальмара и ловкого осьминога, восхитительного ската-манту, а также подружиться с дельфинами и черепахами - прямо на собственном диване! Снятый с помощью 3D-стереоскопа. Удивительный океан 3D станет захватывающим приключением для всей семьи. Настоящее удовольствие для всех, кто стремится к новым открытиям! А с помощью функции «Только музыка» вы сможете отключить повествование и насладиться потрясающими кадрами фильма под звуки музыки.

Выпущено: Германия
Продолжительность: 00:49:13
Перевод: Дублированный
Дата релиза: 02.12.2012

Файл
Кодек: H264
Качество: BDRip (720p)
Видео: MPEG-4 AVC, 5413 Kбит/с, 1280x720
Звук: Русский (DTS, 2 ch, 448 Кбит/с), английский (DTS, 2 ch, 1510 Кбит/с)

Семпл

Уникальный идентификатор : 192779341599601639169240520335790277295 (0x9107F35EC137DA98AF4B424FDB6D82AF)
Полное имя : G:3Udivitelnyj.okean.2012.x264.BDRip.(720p).ExKinoRay.mkv
Формат : Matroska
Версия формата : Version 2
Размер файла : 2,53 Гбайт
Продолжительность : 49 м.
Общий поток : 7355 Кбит/сек
Название фильма : Udivitelnyj.okean.2012.x264.BDRip.(720p).ExKinoRay
Дата кодирования : UTC 2012-12-02 16:13:40
Программа кодирования : mkvmerge v4.0.0 ('The Stars were mine') сборка от Jun 6 2010 16:18:42
Библиотека кодирования : libebml v1.0.0 + libmatroska v1.0.0
Видео
Идентификатор : 1
Формат : AVC
Формат/Информация : Advanced Video Codec
Профиль формата : High@L4.1
Параметр CABAC формата : Да
Параметр ReFrames формата : 8 кадров
Идентификатор кодека : V_MPEG4/ISO/AVC
Продолжительность : 49 м.
Битрейт : 5413 Кбит/сек
Ширина : 1280 пикселей
Высота : 720 пикселей
Соотношение сторон : 16:9
Частота кадров : 23,976 кадра/сек
Цветовое пространство : YUV
Субдискретизация насыщенности : 4:2:0
Битовая глубина : 8 бит
Тип развёртки : Прогрессивная
Бит/(Пиксели*Кадры) : 0.245
Размер потока : 1,81 Гбайт (71%)
Заголовок : Rip by Enigma-Vladislav71
Библиотека кодирования : x264 core 92 r1510 33d382a
Настройки программы : cabac=1 / ref=8 / deblock=1:-2:-2 / analyse=0x3:0x133 / me=umh / subme=10 / psy=1 / psy_rd=1.00:0.00 / mixed_ref=1 / me_range=32 / chroma_me=1 / trellis=2 / 8x8dct=1 / cqm=0 / deadzone=21,11 / fast_pskip=0 / chroma_qp_offset=-2 / threads=3 / sliced_threads=0 / nr=0 / decimate=0 / interlaced=0 / constrained_intra=0 / bframes=8 / b_pyramid=2 / b_adapt=2 / b_bias=0 / direct=3 / wpredb=1 / wpredp=2 / keyint=240 / keyint_min=23 / scenecut=40 / intra_refresh=0 / rc=2pass / mbtree=0 / bitrate=5413 / ratetol=1.0 / qcomp=0.60 / qpmin=10 / qpmax=51 / qpstep=4 / cplxblur=20.0 / qblur=0.5 / ip_ratio=1.40 / pb_ratio=1.30 / aq=1:1.00
Язык : Russian
Default : Нет
Forced : Нет
Аудио #1
Идентификатор : 2
Формат : DTS
Формат/Информация : Digital Theater Systems
Идентификатор кодека : A_DTS
Продолжительность : 49 м.
Вид битрейта : Постоянный
Битрейт : 448 Кбит/сек
Каналы : 2 канала
Расположение каналов : Front: L R
Частота : 48,0 КГц
Битовая глубина : 16 бит
Метод сжатия : С потерями
Задержка видео : 11 мс.
Размер потока : 158 Мбайт (6%)
Язык : Russian
Default : Да
Forced : Нет
Аудио #2
Идентификатор : 3
Формат : DTS
Формат/Информация : Digital Theater Systems
Идентификатор кодека : A_DTS
Продолжительность : 49 м.
Вид битрейта : Постоянный
Битрейт : 1510 Кбит/сек
Каналы : 2 канала
Расположение каналов : Front: L R
Частота : 48,0 КГц
Битовая глубина : 24 бит
Метод сжатия : С потерями
Размер потока : 532 Мбайт (21%)
Язык : English
Default : Нет
Forced : Нет





Релиз от:

Авторы релиза:



   Похожие торренты   Торрент   Размер 
В этой теме нет новых непрочитанных сообщений. Удивительный океан / Amazing Ocean (2012) BDRip от ExKinoRay | D

15 | 3

699.99 МБ

В этой теме нет новых непрочитанных сообщений. Удивительный океан / Amazing Ocean (2012) BDRip-AVC от ExKinoRay

26 | 6

1.37 ГБ

В этой теме нет новых непрочитанных сообщений. Удивительный океан / Amazing Ocean (2012) BDRip 1080p | 3D-Video

103 | 9

6.58 ГБ

В этой теме нет новых непрочитанных сообщений. Планета-океан / Planet Ocean (2012) BDRip 720p | Лицензия

8 | 2

6.74 ГБ

В этой теме нет новых непрочитанных сообщений. Планета-океан / Planet Ocean (2012) BDRip 720p от HQCLUB | Лицензия

120 | 7

4.7 ГБ

В этой теме нет новых непрочитанных сообщений. Планета-океан / Planet Ocean (2012) BDRip 720p от NoLimits-Team

5 | 2

2.18 ГБ

В этой теме нет новых непрочитанных сообщений. Дикий океан / Wild Ocean (2008) BDRip-AVC от ExKinoRay

14 | 7

1 ГБ




Вы не можете начинать темы
Вы не можете отвечать на сообщения
Вы не можете редактировать свои сообщения
Вы не можете удалять свои сообщения
Вы не можете добавлять вложения

Перейти:  
Для Мосгорсуда, Роскомнадзора и рекламодателей: mosgorsud-torrent[собачка]yandex.ru
 Вход
ppkBB3cker v.2 © 2008-2014 @ PPK
[ Time : 0.039s | 14 Queries | GZIP : Off ]

Торрент трекер RUTOR.IN, Не можете зайти на rutor.org? Какой новый адрес рутор? Какое зеркало рутор? Не работает rutor.org и зеркала? Тогда наш торрент специально для вас. Rutor.in неофициальное зеркало rutor. В случае если у Вас заблокирован rutor или вдруг Вы не можете на него зайти, то Вы без труда сможете скачать бесплатно и без рекламы последние новинки кино, игр, сериалов и прочего у нас, на Rutor.in. Не нужно использовать прокси, чтобы зайти на рутор, достаточно воспользоваться нашим ресурсом. Все новые фильмы, игры, сериалы, книги и музыка за 2013 и 2014 годы через торрент бесплатно. Скачивайте фильмы в хорошем качестве, игры для пк, xbox, playstation без регистрации. У нас вы найдете новые Зарубежные сериалы и Русские сериалы 2013, 2014, 2015 годов. Оставайтесь с нами, качайте любимые фильмы, игры, сериалы, книги и музыку.