img image001 image001 image001 image001 image001 image001 image001 image001 image001 image001 image001 image001 image001 image001 image001

Planets Sun Sun Sun
Статистика раздачи
Автор: Снежана | Размер: 10.02 ГБ | Добавлен: 25 июл 2013
Раздают: 9    Качают: 4
Скачать торрент
Скачать торрент
Описание торрента

СообщениеДобавлено: 25 июл 2013 

#77

Информация о фильме
Название: Париж: Путешествие во времени
Оригинальное название: Paris, The Great Saga (Paris, la ville à remonter le temps)
Год выхода: 2012
Жанр: Документальный, исторический
Режиссер: Ксавье Лефевр, Ален Зеноу, Алексис Барбье-Буве

О фильме:
Встаньте у штурвала машины времени и отправляйтесь в захватывающее интерактивное путешествие. Пройдитесь по виртуальному Парижу, станьте очевидцем самых увлекательных моментов в истории этого города. Такого Парижа Вы ещё не видели...

Общее
Уникальный идентификатор : 246752314216928566674151294539435428436 (0xB9A2C45F563421928B45E2EBCA894A54)
Полное имя : Париж. Путешествие во времени (2012, 1080p).mkv
Формат : Matroska
Версия формата : Version 2
Размер файла : 10,0 Гбайт
Продолжительность : 1 ч. 32 м.
Режим общего битрейта : Переменный
Общий поток : 15,5 Мбит/сек
Дата кодирования : UTC 2012-12-22 12:19:29
Программа кодирования : mkvmerge v5.7.0 ('The Whirlwind') built on Jul 8 2012 20:08:51
Библиотека кодирования : libebml v1.2.3 + libmatroska v1.3.0

Видео
Идентификатор : 1
Формат : AVC
Формат/Информация : Advanced Video Codec
Профиль формата : High@L4.1
Параметр CABAC формата : Да
Параметр ReFrames формата : 3 кадра
Идентификатор кодека : V_MPEG4/ISO/AVC
Продолжительность : 1 ч. 32 м.
Вид битрейта : Переменный
Битрейт : 12,5 Мбит/сек
Максимальный битрейт : 30,0 Мбит/сек
Ширина : 1920 пикселей
Высота : 1080 пикселей
Соотношение сторон : 16:9
Режим частоты кадров : Постоянный
Частота кадров : 23,976 кадра/сек
Цветовое пространство : YUV
Субдискретизация насыщенности : 4:2:0
Битовая глубина : 8 бит
Тип развёртки : Прогрессивная
Бит/(Пиксели*Кадры) : 0.251
Размер потока : 7,87 Гбайт (79%)
Библиотека кодирования : x264 core 125 r2200 999b753
Настройки программы : cabac=1 / ref=4 / deblock=1:-3:-3 / analyse=0x3:0x113 / me=umh / subme=10 / psy=1 / psy_rd=1.00:0.00 / mixed_ref=1 / me_range=32 / chroma_me=1 / trellis=2 / 8x8dct=1 / cqm=0 / deadzone=21,11 / fast_pskip=1 / chroma_qp_offset=-2 / threads=6 / lookahead_threads=1 / sliced_threads=0 / slices=4 / nr=0 / decimate=1 / interlaced=0 / bluray_compat=1 / constrained_intra=0 / bframes=3 / b_pyramid=1 / b_adapt=2 / b_bias=0 / direct=3 / weightb=1 / open_gop=1 / weightp=1 / keyint=240 / keyint_min=1 / scenecut=40 / intra_refresh=0 / rc_lookahead=180 / rc=2pass / mbtree=1 / bitrate=12500 / ratetol=1.0 / qcomp=0.80 / qpmin=0 / qpmax=69 / qpstep=4 / cplxblur=20.0 / qblur=0.5 / vbv_maxrate=30000 / vbv_bufsize=12500 / nal_hrd=vbr / ip_ratio=1.40 / aq=1:1.00
Язык : English
Default : Да
Forced : Нет

Аудио #1
Идентификатор : 2
Формат : DTS
Формат/Информация : Digital Theater Systems
Режим : 16
Параметр Endianness формата : Big
Идентификатор кодека : A_DTS
Продолжительность : 1 ч. 32 м.
Вид битрейта : Постоянный
Битрейт : 1509 Кбит/сек
Каналы : 2 канала
Расположение каналов : Front: L R
Частота : 48,0 КГц
Битовая глубина : 24 бит
Метод сжатия : С потерями
Размер потока : 998 Мбайт (10%)
Язык : Russian
Default : Нет
Forced : Нет

Аудио #2
Идентификатор : 3
Формат : DTS
Формат/Информация : Digital Theater Systems
Режим : 16
Параметр Endianness формата : Big
Идентификатор кодека : A_DTS
Продолжительность : 1 ч. 32 м.
Вид битрейта : Постоянный
Битрейт : 1509 Кбит/сек
Каналы : 2 канала
Расположение каналов : Front: L R
Частота : 48,0 КГц
Битовая глубина : 24 бит
Метод сжатия : С потерями
Размер потока : 998 Мбайт (10%)
Язык : French
Default : Нет
Forced : Нет

Текст #1
Идентификатор : 4
Формат : ASS
Идентификатор кодека : S_TEXT/ASS
Идентификатор кодека/Информация : Advanced Sub Station Alpha
Метод сжатия : Без потерь
Язык : Russian
Default : Нет
Forced : Нет

Текст #2
Идентификатор : 5
Формат : ASS
Идентификатор кодека : S_TEXT/ASS
Идентификатор кодека/Информация : Advanced Sub Station Alpha
Метод сжатия : Без потерь
Язык : French
Default : Нет
Forced : Нет

Текст #3
Идентификатор : 6
Формат : ASS
Идентификатор кодека : S_TEXT/ASS
Идентификатор кодека/Информация : Advanced Sub Station Alpha
Метод сжатия : Без потерь
Язык : English
Default : Нет
Forced : Нет

Меню
00:00:00.000 : :00:00:00.000
00:00:18.143 : :00:00:18.143
00:00:51.510 : :00:00:51.510
00:01:19.037 : :00:01:19.037
00:02:41.328 : :00:02:41.328
00:05:48.139 : :00:05:48.139
00:19:08.939 : :00:19:08.939
00:25:45.127 : :00:25:45.127
00:32:39.666 : :00:32:39.666
00:36:41.157 : :00:36:41.157
00:42:55.782 : :00:42:55.782
00:45:46.077 : :00:45:46.077
00:50:59.807 : :00:50:59.807
00:58:31.258 : :00:58:31.258
01:05:26.047 : :01:05:26.047
01:14:54.156 : :01:14:54.156
01:19:10.663 : :01:19:10.663
01:26:22.677 : :01:26:22.677
01:29:31.533 : :01:29:31.533
01:30:51.780 : :01:30:51.780


Страна: Франция
Студия: CanalSat, PLANETE+
Продолжительность: 01:32:30
Перевод: Профессиональный двухголосый (студия "Омикрон" специально для HDCLUB)

Файл
Кодек: h.264
Качество: BDRip 1080p
Видео: 1920x1080, 12.5 Mbit/s, 23.976 fps
Звук:
Русский (DTS, 2 ch, 1510 kbit/s, 48000 Hz, 24 bit)
Французский (DTS, 2 ch, 1510 kbit/s, 48000 Hz, 24 bit)
Субтитры:
Русские, английские, французские (ASS)
Сохранены оригинальные чаптеры (как на Blu-Ray)





   Похожие торренты   Торрент   Размер 
В этой теме нет новых непрочитанных сообщений. Париж: Путешествие во времени / Paris, The Great Saga / Paris, la ville à remonter le temps [Часть 2] (2012) BDRip 1080p | P2

2 | 8

9.05 ГБ

В этой теме нет новых непрочитанных сообщений. Париж: Путешествие во времени / Paris, The Great Saga / Paris, la ville à remonter le temps [Часть 2] (2012) BDRip-AVC | P2

1 | 4

1.35 ГБ

В этой теме нет новых непрочитанных сообщений. Париж: Путешествие во времени / Paris, The Great Saga / Paris, la ville à remonter le temps [Часть 2] (2012) BDRip | P2

1 | 2

496.36 МБ

В этой теме нет новых непрочитанных сообщений. Париж: Путешествие во времени / Paris, The Great Saga / Paris, la ville à remonter le temps [Часть 2] (2012) BDRip 720p | P2

1 | 2

4.3 ГБ

В этой теме нет новых непрочитанных сообщений. Париж: Путешествие во времени / Paris, The Great Saga / Paris, la ville à remonter le temps [Часть 2] (2012) BDRemux | P2

0 | 1

10.71 ГБ

В этой теме нет новых непрочитанных сообщений. Париж: Путешествие во времени / Paris la ville à remonter le temps (2012) BDRip-AVC от HELLYWOOD | P2

27 | 14

1.94 ГБ

В этой теме нет новых непрочитанных сообщений. Париж: История одной столицы / PARIS, A capital tale / PARIS Une histoire capitale [01-04 из 04] (2012) BDRip | L1

65 | 9

3.01 ГБ




Вы не можете начинать темы
Вы не можете отвечать на сообщения
Вы не можете редактировать свои сообщения
Вы не можете удалять свои сообщения
Вы не можете добавлять вложения

Перейти:  
Для Мосгорсуда, Роскомнадзора и рекламодателей: mosgorsud-torrent[собачка]yandex.ru
 Вход
ppkBB3cker v.2 © 2008-2014 @ PPK
[ Time : 0.037s | 14 Queries | GZIP : Off ]

Торрент трекер RUTOR.IN, Не можете зайти на rutor.org? Какой новый адрес рутор? Какое зеркало рутор? Не работает rutor.org и зеркала? Тогда наш торрент специально для вас. Rutor.in неофициальное зеркало rutor. В случае если у Вас заблокирован rutor или вдруг Вы не можете на него зайти, то Вы без труда сможете скачать бесплатно и без рекламы последние новинки кино, игр, сериалов и прочего у нас, на Rutor.in. Не нужно использовать прокси, чтобы зайти на рутор, достаточно воспользоваться нашим ресурсом. Все новые фильмы, игры, сериалы, книги и музыка за 2013 и 2014 годы через торрент бесплатно. Скачивайте фильмы в хорошем качестве, игры для пк, xbox, playstation без регистрации. У нас вы найдете новые Зарубежные сериалы и Русские сериалы 2013, 2014, 2015 годов. Оставайтесь с нами, качайте любимые фильмы, игры, сериалы, книги и музыку.