img image001 image001 image001 image001 image001 image001 image001 image001 image001 image001 image001 image001 image001 image001 image001

Planets Sun Sun Sun
Статистика раздачи
Автор: Снежана | Размер: 7.95 ГБ | Добавлен: 25 июл 2013
Раздают: 356    Качают: 28
Скачать торрент
Скачать торрент
Описание торрента

СообщениеДобавлено: 25 июл 2013 

Самсара

Samsara

#77

Год выпуска: 2011
Страна: США
Жанр: документальный, видовой
Продолжительность: 01:42:05
Перевод: Не требуется

Режиссер: Рон Фрике / Ron Fricke
Сценарий: Рон Фрике / Ron Fricke, Марк Магидсон / Mark Magidson
Продюсер: Марк Магидсон / Mark Magidson, Майлс Коннолли / Myles Connolly, Пол Винз / Paul Winze, Дж.С. Эрл / J.C. Earle, Кристофер Рейна / Christopher Reyna
Оператор: Рон Фрике / Ron Fricke
Композитор: Марселло Де Франчиши / Marcello De Francisci, Лиза Джеррард / Lisa Gerrard, Майкл Стернс / Michael Stearns
Описание: Снимавшийся более пяти лет в 25 странах, фильм «Самсара» - новый невербальный документальный жанр от создателей фильма «Baraka»: Рона Фрике и Марка Магидсона. Это один из немногих фильмов за последние 40 лет, отснятых на 70-миллиметровую пленку.
Погрузитесь в полуторачасовое путешествие по самым удивительным местам планеты.
Приготовьтесь к беспрецедентному чувственному опыту.
«Самсара» воссоединила режиссера Рона Фрике и продюсера Марка Магидсона, чьи удостоенные множества наград фильмы «Барака» и «Хронос» были провозглашены уникальным примером сочетания визуального и музыкального искусства.




MPAA: - Детям до 13 лет просмотр не желателен
Официальный сайт


Качество: BDRip 1080p
Контейнер: MKV
Видео: AVC, 1920x802 (2.40:1), 10509 kbps, 23,976 fps, 0,285 bpp
Аудио: английский /; AC3 /; 5.1 /; 48 kHz /; 640 kbps /; 16 bit
Навигация по главам: есть
x264 [info]: frame I:818 Avg QP:17.94 size:361686
x264 [info]: frame P:30575 Avg QP:20.01 size:115688
x264 [info]: frame B:115481 Avg QP:21.94 size: 36488
General
Unique ID : 194779703331625057040372420601235135533 (0x928934D16BFE9EBDBF6F5E6ACDE85C2D)
Complete name : E:Samsara (2011)BDRip-F.HD.mkv
Format : Matroska
Format version : Version 4 / Version 2
File size : 7.95 GiB
Duration : 1h 42mn
Overall bit rate : 11.2 Mbps
Encoded date : UTC 2010-02-22 21:41:31
Writing application : mkvmerge v5.9.0 ('On The Loose') built on Dec 9 2012 15:37:01
Writing library : libebml v1.3.0 + libmatroska v1.4.0

Video
ID : 1
Format : AVC
Format/Info : Advanced Video Codec
Format profile : High@L4.1
Format settings, CABAC : Yes
Format settings, ReFrames : 5 frames
Codec ID : V_MPEG4/ISO/AVC
Duration : 1h 42mn
Bit rate : 10.5 Mbps
Width : 1 920 pixels
Height : 802 pixels
Display aspect ratio : 2.40:1
Frame rate : 23.976 fps
Color space : YUV
Chroma subsampling : 4:2:0
Bit depth : 8 bits
Scan type : Progressive
Bits/(Pixel*Frame) : 0.285
Stream size : 7.34 GiB (92%)
Writing library : x264 core 129 r2230 1cffe9f
Encoding settings : cabac=1 / ref=5 / deblock=1:-3:-3 / analyse=0x3:0x113 / me=umh / subme=10 / psy=1 / psy_rd=1.00:0.05 / mixed_ref=1 / me_range=32 / chroma_me=1 / trellis=2 / 8x8dct=1 / cqm=0 / deadzone=21,11 / fast_pskip=0 / chroma_qp_offset=-3 / threads=6 / lookahead_threads=1 / sliced_threads=0 / nr=0 / decimate=1 / interlaced=0 / bluray_compat=0 / constrained_intra=0 / bframes=9 / b_pyramid=2 / b_adapt=2 / b_bias=0 / direct=3 / weightb=1 / open_gop=0 / weightp=2 / keyint=240 / keyint_min=23 / scenecut=40 / intra_refresh=0 / rc=2pass / mbtree=0 / bitrate=10509 / ratetol=1.0 / qcomp=0.70 / qpmin=10 / qpmax=51 / qpstep=4 / cplxblur=20.0 / qblur=0.5 / ip_ratio=1.40 / pb_ratio=1.30 / aq=2:0.90
Language : English
Default : Yes
Forced : No
Color primaries : BT.709-5, BT.1361, IEC 61966-2-4, SMPTE RP177
Transfer characteristics : BT.709-5, BT.1361
Matrix coefficients : BT.709-5, BT.1361, IEC 61966-2-4 709, SMPTE RP177

Audio
ID : 2
Format : AC-3
Format/Info : Audio Coding 3
Mode extension : CM (complete main)
Codec ID : A_AC3
Duration : 1h 42mn
Bit rate mode : Constant
Bit rate : 640 Kbps
Channel(s) : 6 channels
Channel positions : Front: L C R, Side: L R, LFE
Sampling rate : 48.0 KHz
Bit depth : 16 bits
Compression mode : Lossy
Stream size : 467 MiB (6%)
Language : English
Default : Yes
Forced : No

Menu
00:00:00.000 : en:00:00:00.000
00:01:50.110 : en:00:01:50.110
00:05:13.313 : en:00:05:13.313
00:07:57.643 : en:00:07:57.643
00:12:34.044 : en:00:12:34.044
00:16:06.924 : en:00:16:06.924
00:19:32.087 : en:00:19:32.087
00:24:17.122 : en:00:24:17.122
00:30:33.039 : en:00:30:33.039
00:33:40.226 : en:00:33:40.226
00:36:18.885 : en:00:36:18.885
00:39:56.602 : en:00:39:56.602
00:44:45.182 : en:00:44:45.182
00:47:03.904 : en:00:47:03.904
00:48:45.505 : en:00:48:45.505
00:49:57.202 : en:00:49:57.202
00:55:29.034 : en:00:55:29.034
00:56:44.651 : en:00:56:44.651
01:01:24.597 : en:01:01:24.597
01:03:41.192 : en:01:03:41.192
01:06:39.328 : en:01:06:39.328
01:10:23.636 : en:01:10:23.636
01:13:41.500 : en:01:13:41.500
01:17:03.910 : en:01:17:03.910
01:18:59.234 : en:01:18:59.234
01:22:54.344 : en:01:22:54.344
01:28:11.077 : en:01:28:11.077
01:29:22.523 : en:01:29:22.523
01:32:14.028 : en:01:32:14.028
01:35:27.722 : en:01:35:27.722


Samsara. Это слово, пришедшее к нам из санскрита, означает “вечно вращающееся колесо жизни” и является для кинематографистов отправной точкой в поисках неуловимых связующих нитей, пронизывающих нашу жизнь.«Самсара» переносит нас на священные земли и в зоны стихийных бедствий, в сердце промышленных объектов и природных чудес. Отказываясь от диалогов и закадрового текста, создатели «Самсары» разрушают наши представления о традиционной документалистике, поощряя нашу собственную интерпретацию, порожденную изображением и музыкой. Наблюдая слияние древности с современностью, переданное через аллегории с двояким смыслом, зритель не заключен в рамки авторских высказываний, а рассуждает самостоятельно, дает волю воображению и задается вопросами, на которые невозможно дать однозначные ответы.
Углубляясь в темы, затронутые в фильмах«Baraka»(1992) и «Chronos» (1985), «Самсара» исследует чудеса нашего мира от обыденного до сверхъестественного, заглядывает в непостижимое, раскрывает человеческую духовность и опыт. Не являясь ни традиционной документальной кинокартиной, ни фильмом о путешествии, «Самсара» принимает форму невербальной управляемой медитации. Через мощные образы фильм освещает связи между человечеством и природой, показывая, как наши жизненные циклы отражаются в ритме планеты.
Создатели фильма подходят к невербальному кинематографу с пониманием, что такой жанр должен быть чем-то большим, чем демонстрация великолепного изображения, сродни гениальным фотографиям, раскрывающим суть предмета, а не только его физическое присутствие.
Фильм «Самсара» был полностью снят на 70-миллиметровую пленку с использованием обоих стандартов частоты кадров в секунду и уникальной камеры, растягивающей кадры во времени. Эта система, разработанная специально для данного проекта, позволяет обнаружить в стандартных и привычных сценах экстраординарные, завораживающие детали. Изображения прошли процесс сканирования с высочайшим разрешением, что сделало кинофильм доступным для демонстрации в цифровом формате 4К, который позволяет насладиться гипнотизирующим видеорядом с беспрецедентной ясностью.
«Самсара»станет образцовым фильмом для демонстрации возможностей нового формата цифровой проекции 4К, формата HD, а также стандартных цифровых и пленочных проекций...







Релиз от:



   Похожие торренты   Торрент   Размер 
В этой теме нет новых непрочитанных сообщений. Самсара / Samsara (2011) Blu-Ray 1080p

28 | 4

37.51 ГБ

В этой теме нет новых непрочитанных сообщений. Самсара / Samsara (2011) BDRemux 1080p

21 | 4

28.29 ГБ

В этой теме нет новых непрочитанных сообщений. Самсара / Samsara (2011) BDRip 720p

185 | 8

4.36 ГБ

В этой теме нет новых непрочитанных сообщений. Самсара / Samsara (2011) BDRip от HQCLUB

445 | 32

1.45 ГБ

В этой теме нет новых непрочитанных сообщений. Самсара / Samsara (2011) BDRip-AVC от Тorrent-Хzona

25 | 3

1.57 ГБ

В этой теме нет новых непрочитанных сообщений. Самсара / Samsara (2011) HDRip

79 | 7

1.46 ГБ

В этой теме нет новых непрочитанных сообщений. Самсара / Samsara (2011) DVD5

21 | 3

4.35 ГБ




Вы не можете начинать темы
Вы не можете отвечать на сообщения
Вы не можете редактировать свои сообщения
Вы не можете удалять свои сообщения
Вы не можете добавлять вложения

Перейти:  
Для Мосгорсуда, Роскомнадзора и рекламодателей: mosgorsud-torrent[собачка]yandex.ru
 Вход
ppkBB3cker v.2 © 2008-2014 @ PPK
[ Time : 0.049s | 14 Queries | GZIP : Off ]

Торрент трекер RUTOR.IN, Не можете зайти на rutor.org? Какой новый адрес рутор? Какое зеркало рутор? Не работает rutor.org и зеркала? Тогда наш торрент специально для вас. Rutor.in неофициальное зеркало rutor. В случае если у Вас заблокирован rutor или вдруг Вы не можете на него зайти, то Вы без труда сможете скачать бесплатно и без рекламы последние новинки кино, игр, сериалов и прочего у нас, на Rutor.in. Не нужно использовать прокси, чтобы зайти на рутор, достаточно воспользоваться нашим ресурсом. Все новые фильмы, игры, сериалы, книги и музыка за 2013 и 2014 годы через торрент бесплатно. Скачивайте фильмы в хорошем качестве, игры для пк, xbox, playstation без регистрации. У нас вы найдете новые Зарубежные сериалы и Русские сериалы 2013, 2014, 2015 годов. Оставайтесь с нами, качайте любимые фильмы, игры, сериалы, книги и музыку.