img image001 image001 image001 image001 image001 image001 image001 image001 image001 image001 image001 image001 image001 image001 image001

Planets Sun Sun Sun
Статистика раздачи
Автор: Снежана | Размер: 5.76 ГБ | Добавлен: 24 июл 2013
Раздают: 250    Качают: 7
Скачать торрент
Скачать торрент
Описание торрента

СообщениеДобавлено: 24 июл 2013 

#77

Информация о фильме
Название: Искусство полета
Оригинальное название: The Art of Flight
Год выхода: 2011
Жанр: документальный, приключения, спорт
Режиссер: Курт Морган
В ролях: Джейк Бловелт, Джон Джексон, Джереми Джонс, Скотти Лаго, Марк Лэндвик, Пэт Мур, Николас Мюллер, Иро Ниемела, Давид Каррье Поршерон, Трэвис Райс
О фильме: Фильм об экстремальном спорте и сноубординге. Группа сноубордистов во главе с Трэвисом Райсом воплощает свои самые смелые мечты в реальность, отправляется в глобальные приключения и поднимает сноубординг на новые, невообразимые уровни.



Выпущено: Red Bull Media House
Продолжительность: 01:20:38
Перевод: Любительский (одноголосый)

Файл
Кодек: x264
Качество: BDRip (источник: Blu-ray Disc)
Видео: 1920x1080 (16:9), 23.976 fps, 8949 kbps
Аудио #1: AC-3, 6 ch, 640 kbps (Rus)
Аудио #2: AC-3, 6 ch, 640 kbps (Eng)
Субтитры: Русские, Английские
Скачать: сэмпл

Скриншоты

Общее
Уникальный идентификатор : 213019641544390143604988152761753202469 (0xA04217342313056E9EB746225D6EEF25)
Полное имя : The.Art.of.Flight.2011.BDRip.1080p.Rus.Eng.mkv
Формат : Matroska
Версия формата : Version 2
Размер файла : 5,76 Гбайт
Продолжительность : 1 ч. 20 м.
Общий поток : 10,2 Мбит/сек
Название фильма : Искусство полета / The Art of Flight (2011)
Дата кодирования : UTC 2013-01-12 10:46:24
Программа кодирования : mkvmerge v5.8.0 ('No Sleep / Pillow') built on Sep 2 2012 15:37:04
Библиотека кодирования : libebml v1.2.3 + libmatroska v1.3.0

Видео
Идентификатор : 1
Формат : AVC
Формат/Информация : Advanced Video Codec
Профиль формата : High@L4.1
Параметр CABAC формата : Да
Параметр ReFrames формата : 4 кадра
Идентификатор кодека : V_MPEG4/ISO/AVC
Продолжительность : 1 ч. 20 м.
Битрейт : 8949 Кбит/сек
Ширина : 1920 пикселей
Высота : 1080 пикселей
Соотношение сторон : 16:9
Частота кадров : 23,976 кадра/сек
Цветовое пространство : YUV
Субдискретизация насыщенности : 4:2:0
Битовая глубина : 8 бит
Тип развёртки : Прогрессивная
Бит/(Пиксели*Кадры) : 0.180
Размер потока : 4,93 Гбайт (85%)
Заголовок : Release by AlexKa
Библиотека кодирования : x264 core 129 r2245 bc13772
Настройки программы : cabac=1 / ref=4 / deblock=1:0:0 / analyse=0x3:0x133 / me=umh / subme=10 / psy=1 / psy_rd=1.00:0.00 / mixed_ref=1 / me_range=32 / chroma_me=1 / trellis=2 / 8x8dct=1 / cqm=0 / deadzone=21,11 / fast_pskip=0 / chroma_qp_offset=-2 / threads=12 / lookahead_threads=2 / sliced_threads=0 / nr=0 / decimate=0 / interlaced=0 / bluray_compat=0 / constrained_intra=0 / bframes=5 / b_pyramid=2 / b_adapt=2 / b_bias=0 / direct=3 / weightb=1 / open_gop=0 / weightp=2 / keyint=240 / keyint_min=23 / scenecut=40 / intra_refresh=0 / rc=2pass / mbtree=0 / bitrate=8949 / ratetol=1.0 / qcomp=0.60 / qpmin=0 / qpmax=69 / qpstep=4 / cplxblur=20.0 / qblur=0.5 / ip_ratio=1.40 / pb_ratio=1.30 / aq=1:0.70
Язык : English

Аудио #1
Идентификатор : 2
Формат : AC-3
Формат/Информация : Audio Coding 3
Расширение режима : CM (complete main)
Идентификатор кодека : A_AC3
Продолжительность : 1 ч. 20 м.
Вид битрейта : Постоянный
Битрейт : 640 Кбит/сек
Каналы : 6 каналов
Расположение каналов : Front: L C R, Side: L R, LFE
Частота : 48,0 КГц
Битовая глубина : 16 бит
Метод сжатия : С потерями
Размер потока : 369 Мбайт (6%)
Заголовок : Rus
Язык : Russian

Аудио #2
Идентификатор : 3
Формат : AC-3
Формат/Информация : Audio Coding 3
Расширение режима : CM (complete main)
Идентификатор кодека : A_AC3
Продолжительность : 1 ч. 20 м.
Вид битрейта : Постоянный
Битрейт : 640 Кбит/сек
Каналы : 6 каналов
Расположение каналов : Front: L C R, Side: L R, LFE
Частота : 48,0 КГц
Битовая глубина : 16 бит
Метод сжатия : С потерями
Размер потока : 369 Мбайт (6%)
Заголовок : Eng
Язык : English

Текст #1
Идентификатор : 4
Формат : UTF-8
Идентификатор кодека : S_TEXT/UTF8
Идентификатор кодека/Информация : UTF-8 Plain Text
Заголовок : Rus
Язык : Russian

Текст #2
Идентификатор : 5
Формат : UTF-8
Идентификатор кодека : S_TEXT/UTF8
Идентификатор кодека/Информация : UTF-8 Plain Text
Заголовок : Eng
Язык : English

Меню
00:00:00.000 : :Chapter 01
00:04:50.373 : :Chapter 02
00:11:23.766 : :Chapter 03
00:14:12.434 : :Chapter 04
00:20:31.772 : :Chapter 05
00:26:23.331 : :Chapter 06
00:33:44.731 : :Chapter 07
00:45:57.963 : :Chapter 08
00:54:04.991 : :Chapter 09
00:58:54.489 : :Chapter 10
01:05:37.892 : :Chapter 11
01:12:59.833 : :Chapter 12
01:14:40.058 : :Chapter 13
x264 [info]: frame I:1061 Avg QP:18.43 size:245306
x264 [info]: frame P:31660 Avg QP:21.32 size: 83947
x264 [info]: frame B:83272 Avg QP:23.51 size: 29925



   Похожие торренты   Торрент   Размер 
В этой теме нет новых непрочитанных сообщений. Искусство полета / The Art of Flight (2011) BDRip 1080p | 3D-Video | L1

90 | 10

9.97 ГБ

В этой теме нет новых непрочитанных сообщений. Искусство полёта + Бонусы / The Art of Flight (2011) BDRip 720p

51 | 10

6.29 ГБ

В этой теме нет новых непрочитанных сообщений. Искусство полета / The Art of Flight (2011) HDRip | L1

2 | 2

706.96 МБ

В этой теме нет новых непрочитанных сообщений. Сноубординг. Искусство Полёта / Snowboarding. The Art of Flight (2011) Blu Ray

3 | 4

22.18 ГБ

В этой теме нет новых непрочитанных сообщений. Сноубординг. Искусство Полёта / Snowboarding. The Art of Flight (2011) HDRip

64 | 7

1.46 ГБ

В этой теме нет новых непрочитанных сообщений. Сноубординг. Искусство Полёта / Snowboarding. The Art of Flight (2011) BRRip 720р

25 | 2

2.68 ГБ

В этой теме нет новых непрочитанных сообщений. Теория полета / The Theory of Flight (1998) DVDRip-AVC | Санаев

35 | 11

1.45 ГБ




Вы не можете начинать темы
Вы не можете отвечать на сообщения
Вы не можете редактировать свои сообщения
Вы не можете удалять свои сообщения
Вы не можете добавлять вложения

Перейти:  
Для Мосгорсуда, Роскомнадзора и рекламодателей: mosgorsud-torrent[собачка]yandex.ru
 Вход
ppkBB3cker v.2 © 2008-2014 @ PPK
[ Time : 0.053s | 15 Queries | GZIP : Off ]

cron