img image001 image001 image001 image001 image001 image001 image001 image001 image001 image001 image001 image001 image001 image001 image001

Planets Sun Sun Sun
Статистика раздачи
Автор: Снежана | Размер: 2.84 ГБ | Добавлен: 25 июл 2013
Раздают: 6    Качают: 3
Скачать торрент
Скачать торрент
Описание торрента

СообщениеДобавлено: 25 июл 2013 

#77

Информация о фильме
Название: Пятёрка лучших
Оригинальное название: World's TOP 5
Год выхода: 2012
Жанр: Документальный
Режиссер: Элйес Габель
В ролях: Пятерка лучших :)

О фильме:
Капот к капоту, крыло к крылу - самые мощные, самые быстрые, самые совершенные автомобили, самолеты, поезда готовятся начать беспрецедентное состязание. В каждом виде этого необычного спорта встретятся пять представителей своего класса. Экспертное жюри сравнит пять их основных характеристик, чтобы определить лучшего из лучших. Соревнование охватывает не только транспортные средства - в отдельном зачете выступят крупнейшие заводы и высочайшие небоскребы. Пять дисциплин, пять участников в каждой, пять критериев - и пять победителей в итоге. Чтобы узнать их имена и восхититься их совершенством, смотрите новую программу «Пятерка лучших»!..

Супер самолёты (Пятёрка лучших самолетов мира) / Super Planes (720x400)
Познакомьтесь с лучшими самолетами мира, включая Еврофайтер Тайфун, Антонов-225 и Аэробус 380. Какой самолет окажется самым крутым?

Величайший корабль (Лучшие пять кораблей мира) / Mega Ships (720x400)
В любое назначенное время пятьдесят тысяч кораблей по всему миру отправляются в плавание. Они перевозят миллионы пассажиров и транспортируют девяносто процентов всех грузов. Это один из древнейших видов транспорта, созданных человеком. Но каким должен быть лучший в мире корабль? Мы пристально рассмотрим эти чудеса света, бороздящие океаны. Какой корабль самый быстрый? У какого самая высокая грузоподъемность? Какой корабль способен перевезти наибольшее количество пассажиров или обладает наибольшей мощностью двигателя?
В поисках великих творений гениев инженерного дела мы отправились в кругосветное путешествие, проводя постоянные исследования, анализируя, сопоставляя, и все это для того, что бы выявить лучшего из лучших - величайший корабль на Земле!..

Землеройная техника. (Пятёрка лучших экскаваторов мира) / Earthmovers (720x408)
Крупнейшие в мире машины, созданные для перемещения земляных гор: от гигантских самосвалов до огромных проходческих комплексов. Землеройная техника бывает разных форм и размеров: большая, очень большая и сверхбольшая! Но что делает лучшие из землеройных машин таковыми? Рассмотрим эти чудеса техники поподробнее! Какая из землеройно-транспортных машин самая тяжелая, самая грузоподъемная и может выполнять самые опасные работы?
Мы пустились на поиски чемпиона среди крупнейших творений инженерной мысли и искали, проверяли и сравнивали, что бы определить лучшую из лучших - величайшую землеройную машину на планете!..

Супер автомобиль (Пятёрка лучших автомобилей мира) / Super Cars (720x400)
Суперкары, включая Bugatti Veyron и Thrust SSC, соревнуются друг с другом в пяти автомобильных конкурсах, чтобы выяснить, какой суперкар самый лучший...

Пять самых больших заводов мира / Megafactories (720х400)
Заводы - одни из самых крупных и удивительных зданий планеты, где наука и технологии работают на производство чего угодно: от микросхем до ракет. Заводы крайне разнообразны: умные, современные, гигантские - и каждый является единым сложным механизмом.
Как создаются лучшие из лучших? Мы решили изучить эти чудеса инженерии и выяснить: какой завод самый большой, какой самый ударный или самый дорогой?..

Официальный сайт

Страна: США
Студия: Discovery channel
Продолжительность: 5 х ~ 00:44:00
Перевод: Профессиональный (одноголосый закадровый)

Файл
Кодек: XviD
Качество: SATRip
Видео: MPEG-4 Visual, XviD, 720 х 400 / 720 х 408 (16:9), 29,970 / 25,000 кадр/сек, 1645 Кбит/сек, 0.229 бит/пиксель
Звук:
AC3 / MP3, 48,0 КГц, 128 / 192 Кбит/сек, 2 канала(ов)

Общее
Полное имя : C:UsersAmberDesktopWorld's TOP 5Землеройная техника. (Пятёрка лучших экскаваторов мира).avi
Формат : AVI
Формат/Информация : Audio Video Interleave
Размер файла : 630 Мбайт
Продолжительность : 44 м.
Общий поток : 2003 Кбит/сек
Программа кодирования : VirtualDubMod 1.5.10.3 | www.virtualdub-fr.org || (build 2550/release)
Библиотека кодирования : VirtualDubMod build 2550/release

Видео
Идентификатор : 0
Формат : MPEG-4 Visual
Профиль формата : Advanced Simple@L5
Параметр BVOP формата : 2
Параметр QPel формата : Нет
Параметр GMC формата : Без точки перехода
Параметр матрицы формата : Default (H.263)
Режим смешивания : Сжатый битовый поток
Идентификатор кодека : XVID
Идентификатор кодека/Подсказка : XviD
Продолжительность : 44 м.
Битрейт : 1799 Кбит/сек
Ширина : 720 пикселей
Высота : 408 пикселей
Соотношение сторон : 16:9
Частота кадров : 29,970 кадров/сек
Цветовое пространство : YUV
Субдискретизация насыщенности : 4:2:0
Битовая глубина : 8 бит
Тип развёртки : Прогрессивная
Метод сжатия : С потерями
Бит/(Пиксели*Кадры) : 0.204
Размер потока : 566 Мбайт (90%)
Библиотека кодирования : XviD 1.2.1 (UTC 2008-12-04)

Аудио
Идентификатор : 1
Формат : AC-3
Формат/Информация : Audio Coding 3
Расширение режима : CM (complete main)
Параметр Endianness формата : Big
Идентификатор кодека : 2000
Продолжительность : 44 м.
Вид битрейта : Постоянный
Битрейт : 192 Кбит/сек
Каналы : 2 канала
Расположение каналов : Front: L R
Частота : 48,0 КГц
Битовая глубина : 16 бит
Метод сжатия : С потерями
Размер потока : 60,4 Мбайт (10%)
Выравнивание : Разделение по промежуткам
Продолжительность промежутка : 33 мс. (1,00 видеокадр)
Время предзагрузки промежутка : 500 мс.

Общее
Полное имя : C:UsersAmberDesktopWorld's TOP 5Мегазаводы.avi
Формат : AVI
Формат/Информация : Audio Video Interleave
Размер файла : 562 Мбайт
Продолжительность : 43 м.
Общий поток : 1786 Кбит/сек
Библиотека кодирования : TMPGEnc 4.0 XPress Version. 4.7.7.307

Видео
Идентификатор : 0
Формат : MPEG-4 Visual
Параметр BVOP формата : 1
Параметр QPel формата : Нет
Параметр GMC формата : Без точки перехода
Параметр матрицы формата : Default (H.263)
Режим смешивания : Сжатый битовый поток
Идентификатор кодека : DX50
Идентификатор кодека/Подсказка : DivX 5
Продолжительность : 43 м.
Битрейт : 1651 Кбит/сек
Ширина : 720 пикселей
Высота : 400 пикселей
Соотношение сторон : 16:9
Частота кадров : 25,000 кадров/сек
Цветовое пространство : YUV
Субдискретизация насыщенности : 4:2:0
Битовая глубина : 8 бит
Тип развёртки : Прогрессивная
Метод сжатия : С потерями
Бит/(Пиксели*Кадры) : 0.229
Размер потока : 519 Мбайт (92%)
Библиотека кодирования : DivX 6.8.5 (UTC 2009-08-20)

Аудио
Идентификатор : 1
Формат : MPEG Audio
Версия формата : Version 1
Профиль формата : Layer 3
Режим : Joint stereo
Расширение режима : MS Stereo
Идентификатор кодека : 55
Идентификатор кодека/Подсказка : MP3
Продолжительность : 43 м.
Вид битрейта : Постоянный
Битрейт : 128 Кбит/сек
Каналы : 2 канала
Частота : 48,0 КГц
Метод сжатия : С потерями
Размер потока : 40,2 Мбайт (7%)
Выравнивание : Соединение по промежуткам
Продолжительность промежутка : 250 мс. (6,25 видеокадров)
Время предзагрузки промежутка : 192 мс.

Общее
Полное имя : C:UsersAmberDesktopWorld's TOP 5Самый большой корабль мира. (Лучшие пять кораблей мира).avi
Формат : AVI
Формат/Информация : Audio Video Interleave
Размер файла : 561 Мбайт
Продолжительность : 43 м.
Общий поток : 1783 Кбит/сек
Библиотека кодирования : VirtualDub build 34807/release

Видео
Идентификатор : 0
Формат : MPEG-4 Visual
Профиль формата : Advanced Simple@L5
Параметр BVOP формата : 2
Параметр QPel формата : Нет
Параметр GMC формата : Без точки перехода
Параметр матрицы формата : Default (H.263)
Режим смешивания : Сжатый битовый поток
Идентификатор кодека : XVID
Идентификатор кодека/Подсказка : XviD
Продолжительность : 43 м.
Битрейт : 1645 Кбит/сек
Ширина : 720 пикселей
Высота : 400 пикселей
Соотношение сторон : 16:9
Частота кадров : 25,000 кадров/сек
Цветовое пространство : YUV
Субдискретизация насыщенности : 4:2:0
Битовая глубина : 8 бит
Тип развёртки : Прогрессивная
Метод сжатия : С потерями
Бит/(Пиксели*Кадры) : 0.229
Размер потока : 518 Мбайт (92%)
Библиотека кодирования : XviD 64

Аудио
Идентификатор : 1
Формат : MPEG Audio
Версия формата : Version 1
Профиль формата : Layer 3
Режим : Joint stereo
Расширение режима : MS Stereo
Идентификатор кодека : 55
Идентификатор кодека/Подсказка : MP3
Продолжительность : 43 м.
Вид битрейта : Постоянный
Битрейт : 128 Кбит/сек
Каналы : 2 канала
Частота : 48,0 КГц
Метод сжатия : С потерями
Размер потока : 40,3 Мбайт (7%)
Выравнивание : Разделение по промежуткам
Продолжительность промежутка : 40 мс. (1,00 видеокадр)
Время предзагрузки промежутка : 500 мс.

Общее
Полное имя : C:UsersAmberDesktopWorld's TOP 5Супер автомобиль (Пятёрка лучших автомобилей мира).avi
Формат : AVI
Формат/Информация : Audio Video Interleave
Размер файла : 555 Мбайт
Продолжительность : 43 м.
Общий поток : 1782 Кбит/сек
Библиотека кодирования : VirtualDub build 34807/release

Видео
Идентификатор : 0
Формат : MPEG-4 Visual
Профиль формата : Advanced Simple@L5
Параметр BVOP формата : 2
Параметр QPel формата : Нет
Параметр GMC формата : Без точки перехода
Параметр матрицы формата : Default (H.263)
Режим смешивания : Сжатый битовый поток
Идентификатор кодека : XVID
Идентификатор кодека/Подсказка : XviD
Продолжительность : 43 м.
Битрейт : 1645 Кбит/сек
Ширина : 720 пикселей
Высота : 400 пикселей
Соотношение сторон : 16:9
Частота кадров : 25,000 кадров/сек
Цветовое пространство : YUV
Субдискретизация насыщенности : 4:2:0
Битовая глубина : 8 бит
Тип развёртки : Прогрессивная
Метод сжатия : С потерями
Бит/(Пиксели*Кадры) : 0.228
Размер потока : 512 Мбайт (92%)
Библиотека кодирования : XviD 64

Аудио
Идентификатор : 1
Формат : MPEG Audio
Версия формата : Version 1
Профиль формата : Layer 3
Режим : Joint stereo
Расширение режима : MS Stereo
Идентификатор кодека : 55
Идентификатор кодека/Подсказка : MP3
Продолжительность : 43 м.
Вид битрейта : Постоянный
Битрейт : 128 Кбит/сек
Каналы : 2 канала
Частота : 48,0 КГц
Метод сжатия : С потерями
Размер потока : 39,9 Мбайт (7%)
Выравнивание : Разделение по промежуткам
Продолжительность промежутка : 40 мс. (1,00 видеокадр)
Время предзагрузки промежутка : 500 мс.

Общее
Полное имя : C:UsersAmberDesktopWorld's TOP 5Супер самолёт. (Пятёрка лучших самолетов мира).avi
Формат : AVI
Формат/Информация : Audio Video Interleave
Размер файла : 596 Мбайт
Продолжительность : 43 м.
Общий поток : 1901 Кбит/сек
Программа кодирования : VirtualDubMod 1.5.10.3 | www.virtualdub-fr.org || (build 2550/release)
Библиотека кодирования : VirtualDubMod build 2550/release

Видео
Идентификатор : 0
Формат : MPEG-4 Visual
Профиль формата : Advanced Simple@L5
Параметр BVOP формата : 2
Параметр QPel формата : Нет
Параметр GMC формата : Без точки перехода
Параметр матрицы формата : Default (H.263)
Режим смешивания : Сжатый битовый поток
Идентификатор кодека : XVID
Идентификатор кодека/Подсказка : XviD
Продолжительность : 43 м.
Битрейт : 1700 Кбит/сек
Ширина : 720 пикселей
Высота : 400 пикселей
Соотношение сторон : 16:9
Частота кадров : 25,000 кадров/сек
Цветовое пространство : YUV
Субдискретизация насыщенности : 4:2:0
Битовая глубина : 8 бит
Тип развёртки : Прогрессивная
Метод сжатия : С потерями
Бит/(Пиксели*Кадры) : 0.236
Размер потока : 532 Мбайт (89%)
Библиотека кодирования : XviD 1.2.1 (UTC 2008-12-04)

Аудио
Идентификатор : 1
Формат : AC-3
Формат/Информация : Audio Coding 3
Расширение режима : CM (complete main)
Параметр Endianness формата : Big
Идентификатор кодека : 2000
Продолжительность : 43 м.
Вид битрейта : Постоянный
Битрейт : 192 Кбит/сек
Каналы : 2 канала
Расположение каналов : Front: L R
Частота : 48,0 КГц
Битовая глубина : 16 бит
Метод сжатия : С потерями
Размер потока : 60,1 Мбайт (10%)
Выравнивание : Разделение по промежуткам
Продолжительность промежутка : 40 мс. (1,00 видеокадр)
Время предзагрузки промежутка : 500 мс.

Субтитры: нет

Семпл




   Похожие торренты   Торрент   Размер 
В этой теме нет новых непрочитанных сообщений. Discovery: Пятёрка лучших. Супер автомобиль / Пятёрка лучших автомобилей мира / World's TOP 5. Super Cars (2012) SatRip

20 | 3

555.09 МБ

В этой теме нет новых непрочитанных сообщений. Discovery World : Разоблачение динозавров / Discovery World : Dinosaurs decoded (2010) SATRip

9 | 3

638.67 МБ

В этой теме нет новых непрочитанных сообщений. Discovery: Разрушители легенд. 25 Лучших моментов / MythBusters (2011) SATRip

14 | 3

964.64 МБ

В этой теме нет новых непрочитанных сообщений. Discovery: Погружение на дно Океана / Discovery: Dive To The Bottom Of The World (2010) SATRip

7 | 6

433.31 МБ

В этой теме нет новых непрочитанных сообщений. Новый мир. Сверхлюди / Discovery. Next world (2009) SATRip

39 | 17

500.02 МБ

В этой теме нет новых непрочитанных сообщений. 20 лучших песен 2011 года (2012) SATRip

0 | 1

1.42 ГБ

В этой теме нет новых непрочитанных сообщений. Discovery: Новый Мир : Развлечения будущего / Next World : Future fan (2009) SATRip

0 | 3

511.28 МБ




Вы не можете начинать темы
Вы не можете отвечать на сообщения
Вы не можете редактировать свои сообщения
Вы не можете удалять свои сообщения
Вы не можете добавлять вложения

Перейти:  
Для Мосгорсуда, Роскомнадзора и рекламодателей: mosgorsud-torrent[собачка]yandex.ru
 Вход
ppkBB3cker v.2 © 2008-2014 @ PPK
[ Time : 0.042s | 14 Queries | GZIP : Off ]

Торрент трекер RUTOR.IN, Не можете зайти на rutor.org? Какой новый адрес рутор? Какое зеркало рутор? Не работает rutor.org и зеркала? Тогда наш торрент специально для вас. Rutor.in неофициальное зеркало rutor. В случае если у Вас заблокирован rutor или вдруг Вы не можете на него зайти, то Вы без труда сможете скачать бесплатно и без рекламы последние новинки кино, игр, сериалов и прочего у нас, на Rutor.in. Не нужно использовать прокси, чтобы зайти на рутор, достаточно воспользоваться нашим ресурсом. Все новые фильмы, игры, сериалы, книги и музыка за 2013 и 2014 годы через торрент бесплатно. Скачивайте фильмы в хорошем качестве, игры для пк, xbox, playstation без регистрации. У нас вы найдете новые Зарубежные сериалы и Русские сериалы 2013, 2014, 2015 годов. Оставайтесь с нами, качайте любимые фильмы, игры, сериалы, книги и музыку.