img image001 image001 image001 image001 image001 image001 image001 image001 image001 image001 image001 image001 image001 image001 image001

Planets Sun Sun Sun
Статистика раздачи
Автор: Снежана | Размер: 4.3 ГБ | Добавлен: 24 июл 2013
Раздают: 1    Качают: 2
Скачать торрент
Скачать торрент
Описание торрента

СообщениеДобавлено: 24 июл 2013 

#77

Информация о фильме
Название: Париж: Путешествие во времени (Часть 2)
Оригинальное название: Paris, The Great Saga (Paris, la ville à remonter le temps)
Год выхода: 2012
Жанр: Документальный, исторический
Режиссер: Ксавье Лефевр, Ален Зеноу, Алексис Барбье-Буве

О фильме:
Встаньте у штурвала машины времени и отправляйтесь в захватывающее интерактивное путешествие. Пройдитесь по виртуальному Парижу, станьте очевидцем самых увлекательных моментов в истории этого города.

Общее
Уникальный идентификатор : 184979157058853183703392489254012189760 (0x8B29B0948D2CE3BF91809BADB889FC40)
Полное имя : Paris.The.Great.Saga.Part2.BDRip.720p.mkv
Формат : Matroska
Версия формата : Version 4 / Version 2
Размер файла : 4,30 Гбайт
Продолжительность : 55 м.
Общий поток : 11,0 Мбит/сек
Дата кодирования : UTC 2010-02-22 21:41:31
Программа кодирования : mkvmerge v5.9.0 ('On The Loose') built on Dec 9 2012 15:37:01
Библиотека кодирования : libebml v1.3.0 + libmatroska v1.4.0

Видео
Идентификатор : 1
Формат : AVC
Формат/Информация : Advanced Video Codec
Профиль формата : High@L4.1
Параметр CABAC формата : Да
Параметр ReFrames формата : 4 кадра
Идентификатор кодека : V_MPEG4/ISO/AVC
Продолжительность : 55 м.
Битрейт : 7764 Кбит/сек
Ширина : 1280 пикселей
Высота : 720 пикселей
Соотношение сторон : 16:9
Режим частоты кадров : Постоянный
Частота кадров : 23,976 кадра/сек
Цветовое пространство : YUV
Субдискретизация насыщенности : 4:2:0
Битовая глубина : 8 бит
Тип развёртки : Прогрессивная
Бит/(Пиксели*Кадры) : 0.351
Размер потока : 3,03 Гбайт (71%)
Библиотека кодирования : x264 core 129 r2230 1cffe9f
Настройки программы : cabac=1 / ref=4 / deblock=1:-2:-2 / analyse=0x3:0x133 / me=umh / subme=11 / psy=1 / psy_rd=1.00:0.15 / mixed_ref=1 / me_range=32 / chroma_me=1 / trellis=2 / 8x8dct=1 / cqm=0 / deadzone=21,11 / fast_pskip=0 / chroma_qp_offset=-3 / threads=16 / lookahead_threads=2 / sliced_threads=0 / nr=0 / decimate=1 / interlaced=0 / bluray_compat=0 / constrained_intra=0 / bframes=8 / b_pyramid=2 / b_adapt=2 / b_bias=0 / direct=1 / weightb=1 / open_gop=0 / weightp=2 / keyint=240 / keyint_min=23 / scenecut=40 / intra_refresh=0 / rc_lookahead=60 / rc=crf / mbtree=1 / crf=18.0 / qcomp=0.60 / qpmin=0 / qpmax=69 / qpstep=4 / ip_ratio=1.40 / aq=1:1.00
Язык : English
Default : Да
Forced : Нет

Аудио #1
Идентификатор : 2
Формат : DTS
Формат/Информация : Digital Theater Systems
Режим : 16
Параметр Endianness формата : Big
Идентификатор кодека : A_DTS
Продолжительность : 55 м.
Вид битрейта : Постоянный
Битрейт : 1509 Кбит/сек
Каналы : 2 канала
Расположение каналов : Front: L R
Частота : 48,0 КГц
Битовая глубина : 24 бит
Метод сжатия : С потерями
Размер потока : 604 Мбайт (14%)
Язык : Russian
Default : Да
Forced : Нет

Аудио #2
Идентификатор : 3
Формат : DTS
Формат/Информация : Digital Theater Systems
Режим : 16
Параметр Endianness формата : Big
Идентификатор кодека : A_DTS
Продолжительность : 55 м.
Вид битрейта : Постоянный
Битрейт : 1509 Кбит/сек
Каналы : 2 канала
Расположение каналов : Front: L R
Частота : 48,0 КГц
Битовая глубина : 24 бит
Метод сжатия : С потерями
Размер потока : 604 Мбайт (14%)
Язык : French
Default : Нет
Forced : Нет

Текст #1
Идентификатор : 4
Формат : PGS
Режим смешивания : zlib
Идентификатор кодека : S_HDMV/PGS
Идентификатор кодека/Информация : The same subtitle format used on BDs/HD-DVDs
Язык : Russian
Default : Да
Forced : Нет

Текст #2
Идентификатор : 5
Формат : PGS
Режим смешивания : zlib
Идентификатор кодека : S_HDMV/PGS
Идентификатор кодека/Информация : The same subtitle format used on BDs/HD-DVDs
Язык : English
Default : Нет
Forced : Нет

Текст #3
Идентификатор : 6
Формат : PGS
Режим смешивания : zlib
Идентификатор кодека : S_HDMV/PGS
Идентификатор кодека/Информация : The same subtitle format used on BDs/HD-DVDs
Язык : French
Default : Нет
Forced : Нет

Меню
00:00:00.000 : en:00:00:00.000
00:05:00.000 : en:00:05:00.000
00:10:00.000 : en:00:10:00.000
00:15:00.000 : en:00:15:00.000
00:20:00.000 : en:00:20:00.000
00:25:00.000 : en:00:25:00.000
00:30:00.000 : en:00:30:00.000
00:35:00.000 : en:00:35:00.000
00:40:00.000 : en:00:40:00.000
00:45:00.000 : en:00:45:00.000
00:50:00.000 : en:00:50:00.000
00:55:00.000 : en:00:55:00.000


Страна: Франция
Студия: CanalSat, PLANETE+
Продолжительность: 00:55:55
Перевод: Профессиональный двухголосый (студия "Омикрон" специально для HDCLUB)

Файл
Кодек: h.264
Качество: BDRip 720p
Видео: 1280x720, 7764 kbit/s, 23.976 fps
Звук:
Русский (DTS, 2 ch, 1509 kbit/s, 48000 Hz, 16 bit)
Французский (DTS, 2 ch, 1509 kbit/s, 48000 Hz, 16 bit)
Субтитры: Русские, английские, французcкие (PGS)
Сохранены оригинальные чаптеры (как на Blu-Ray)




   Похожие торренты   Торрент   Размер 
В этой теме нет новых непрочитанных сообщений. Париж: Путешествие во времени / Paris, The Great Saga / Paris, la ville à remonter le temps [Часть 2] (2012) BDRip-AVC | P2

1 | 4

1.35 ГБ

В этой теме нет новых непрочитанных сообщений. Париж: Путешествие во времени / Paris, The Great Saga / Paris, la ville à remonter le temps [Часть 2] (2012) BDRip | P2

1 | 2

496.36 МБ

В этой теме нет новых непрочитанных сообщений. Париж: Путешествие во времени / Paris, The Great Saga / Paris, la ville à remonter le temps [Часть 2] (2012) BDRip 1080p | P2

2 | 8

9.05 ГБ

В этой теме нет новых непрочитанных сообщений. Париж: Путешествие во времени / Paris, The Great Saga / Paris, la ville à remonter le temps [Часть 2] (2012) BDRemux | P2

0 | 1

10.71 ГБ

В этой теме нет новых непрочитанных сообщений. Париж: Путешествие во времени / Paris, The Great Saga / Paris, la ville à remonter le temps (2012) BDRip 1080p | P2

9 | 4

10.02 ГБ

В этой теме нет новых непрочитанных сообщений. Париж: Путешествие во времени / Paris la ville à remonter le temps (2012) BDRip-AVC от HELLYWOOD | P2

27 | 14

1.94 ГБ

В этой теме нет новых непрочитанных сообщений. Париж: История одной столицы / PARIS, A capital tale / PARIS Une histoire capitale [01-04 из 04] (2012) BDRip | L1

65 | 9

3.01 ГБ




Вы не можете начинать темы
Вы не можете отвечать на сообщения
Вы не можете редактировать свои сообщения
Вы не можете удалять свои сообщения
Вы не можете добавлять вложения

Перейти:  
Для Мосгорсуда, Роскомнадзора и рекламодателей: mosgorsud-torrent[собачка]yandex.ru
 Вход
ppkBB3cker v.2 © 2008-2014 @ PPK
[ Time : 1.294s | 15 Queries | GZIP : Off ]

Торрент трекер RUTOR.IN, Не можете зайти на rutor.org? Какой новый адрес рутор? Какое зеркало рутор? Не работает rutor.org и зеркала? Тогда наш торрент специально для вас. Rutor.in неофициальное зеркало rutor. В случае если у Вас заблокирован rutor или вдруг Вы не можете на него зайти, то Вы без труда сможете скачать бесплатно и без рекламы последние новинки кино, игр, сериалов и прочего у нас, на Rutor.in. Не нужно использовать прокси, чтобы зайти на рутор, достаточно воспользоваться нашим ресурсом. Все новые фильмы, игры, сериалы, книги и музыка за 2013 и 2014 годы через торрент бесплатно. Скачивайте фильмы в хорошем качестве, игры для пк, xbox, playstation без регистрации. У нас вы найдете новые Зарубежные сериалы и Русские сериалы 2013, 2014, 2015 годов. Оставайтесь с нами, качайте любимые фильмы, игры, сериалы, книги и музыку.
cron