img image001 image001 image001 image001 image001 image001 image001 image001 image001 image001 image001 image001 image001 image001 image001

Planets Sun Sun Sun
Статистика раздачи
Автор: Снежана | Размер: 1.35 ГБ | Добавлен: 25 июл 2013
Раздают: 1    Качают: 4
Скачать торрент
Скачать торрент
Описание торрента

СообщениеДобавлено: 25 июл 2013 

#77

Информация о фильме
Название: Париж: Путешествие во времени (Часть 2)
Оригинальное название: Paris, The Great Saga (Paris, la ville à remonter le temps)
Год выхода: 2012
Жанр: Документальный, исторический
Режиссер: Ксавье Лефевр, Ален Зеноу, Алексис Барбье-Буве

О фильме:
Встаньте у штурвала машины времени и отправляйтесь в захватывающее интерактивное путешествие. Пройдитесь по виртуальному Парижу, станьте очевидцем самых увлекательных моментов в истории этого города.

Общее
Уникальный идентификатор : 187798151884964814547791704536828537610 (0x8D489BC18453B963BE0F70489426EB0A)
Полное имя : Paris.The.Great.Saga.Part2.BDRip.AVC.mkv
Формат : Matroska
Версия формата : Version 4 / Version 2
Размер файла : 1,35 Гбайт
Продолжительность : 55 м.
Общий поток : 3448 Кбит/сек
Дата кодирования : UTC 2010-02-22 21:41:31
Программа кодирования : mkvmerge v5.9.0 ('On The Loose') built on Dec 9 2012 15:37:01
Библиотека кодирования : libebml v1.3.0 + libmatroska v1.4.0

Видео
Идентификатор : 1
Формат : AVC
Формат/Информация : Advanced Video Codec
Профиль формата : High@L4.1
Параметр CABAC формата : Да
Параметр ReFrames формата : 10 кадров
Идентификатор кодека : V_MPEG4/ISO/AVC
Продолжительность : 55 м.
Битрейт : 3000 Кбит/сек
Ширина : 1024 пикселя
Высота : 576 пикселей
Соотношение сторон : 16:9
Режим частоты кадров : Постоянный
Частота кадров : 23,976 кадра/сек
Цветовое пространство : YUV
Субдискретизация насыщенности : 4:2:0
Битовая глубина : 8 бит
Тип развёртки : Прогрессивная
Бит/(Пиксели*Кадры) : 0.212
Размер потока : 1,15 Гбайт (85%)
Библиотека кодирования : x264 core 129 r2230 1cffe9f
Настройки программы : cabac=1 / ref=10 / deblock=1:-3:-3 / analyse=0x3:0x133 / me=umh / subme=11 / psy=1 / psy_rd=1.00:0.10 / mixed_ref=1 / me_range=48 / chroma_me=1 / trellis=2 / 8x8dct=1 / cqm=0 / deadzone=21,11 / fast_pskip=0 / chroma_qp_offset=-3 / threads=16 / lookahead_threads=2 / sliced_threads=0 / nr=0 / decimate=1 / interlaced=0 / bluray_compat=0 / constrained_intra=0 / bframes=5 / b_pyramid=2 / b_adapt=2 / b_bias=0 / direct=3 / weightb=1 / open_gop=0 / weightp=2 / keyint=240 / keyint_min=22 / scenecut=40 / intra_refresh=0 / rc_lookahead=40 / rc=2pass / mbtree=1 / bitrate=3000 / ratetol=1.0 / qcomp=0.60 / qpmin=10 / qpmax=51 / qpstep=4 / cplxblur=20.0 / qblur=0.5 / ip_ratio=1.40 / aq=1:1.00
Язык : English
Default : Да
Forced : Нет

Аудио #1
Идентификатор : 2
Формат : AC-3
Формат/Информация : Audio Coding 3
Расширение режима : CM (complete main)
Параметр Endianness формата : Big
Идентификатор кодека : A_AC3
Продолжительность : 55 м.
Вид битрейта : Постоянный
Битрейт : 224 Кбит/сек
Каналы : 2 канала
Расположение каналов : Front: L R
Частота : 48,0 КГц
Битовая глубина : 16 бит
Метод сжатия : С потерями
Размер потока : 89,6 Мбайт (6%)
Язык : Russian
Default : Да
Forced : Нет

Аудио #2
Идентификатор : 3
Формат : AC-3
Формат/Информация : Audio Coding 3
Расширение режима : CM (complete main)
Параметр Endianness формата : Big
Идентификатор кодека : A_AC3
Продолжительность : 55 м.
Вид битрейта : Постоянный
Битрейт : 224 Кбит/сек
Каналы : 2 канала
Расположение каналов : Front: L R
Частота : 48,0 КГц
Битовая глубина : 16 бит
Метод сжатия : С потерями
Размер потока : 89,6 Мбайт (6%)
Язык : French
Default : Нет
Forced : Нет

Меню
00:00:00.000 : en:00:00:00.000
00:05:00.000 : en:00:05:00.000
00:10:00.000 : en:00:10:00.000
00:15:00.000 : en:00:15:00.000
00:20:00.000 : en:00:20:00.000
00:25:00.000 : en:00:25:00.000
00:30:00.000 : en:00:30:00.000
00:35:00.000 : en:00:35:00.000
00:40:00.000 : en:00:40:00.000
00:45:00.000 : en:00:45:00.000
00:50:00.000 : en:00:50:00.000
00:55:00.000 : en:00:55:00.000


Страна: Франция
Студия: CanalSat, PLANETE+
Продолжительность: 00:55:55
Перевод: Профессиональный двухголосый (студия "Омикрон" специально для HDCLUB)

Файл
Кодек: h.264
Качество: BDRip AVC
Видео: 1024x576, 3000 kbit/s, 23.976 fps
Звук:
Русский (AC3, 2 ch, 224 Кбит/с)
Французский (AC3, 2 ch, 224 Кбит/с)
Субтитры: Отсутствуют
Сохранены оригинальные чаптеры (как на Blu-Ray)




   Похожие торренты   Торрент   Размер 
В этой теме нет новых непрочитанных сообщений. Париж: Путешествие во времени / Paris, The Great Saga / Paris, la ville à remonter le temps [Часть 2] (2012) BDRip | P2

1 | 2

496.36 МБ

В этой теме нет новых непрочитанных сообщений. Париж: Путешествие во времени / Paris, The Great Saga / Paris, la ville à remonter le temps [Часть 2] (2012) BDRip 1080p | P2

2 | 8

9.05 ГБ

В этой теме нет новых непрочитанных сообщений. Париж: Путешествие во времени / Paris, The Great Saga / Paris, la ville à remonter le temps [Часть 2] (2012) BDRip 720p | P2

1 | 2

4.3 ГБ

В этой теме нет новых непрочитанных сообщений. Париж: Путешествие во времени / Paris, The Great Saga / Paris, la ville à remonter le temps [Часть 2] (2012) BDRemux | P2

0 | 1

10.71 ГБ

В этой теме нет новых непрочитанных сообщений. Париж: Путешествие во времени / Paris, The Great Saga / Paris, la ville à remonter le temps (2012) BDRip 1080p | P2

9 | 4

10.02 ГБ

В этой теме нет новых непрочитанных сообщений. Париж: Путешествие во времени / Paris la ville à remonter le temps (2012) BDRip-AVC от HELLYWOOD | P2

27 | 14

1.94 ГБ

В этой теме нет новых непрочитанных сообщений. Париж: История одной столицы / PARIS, A capital tale / PARIS Une histoire capitale [01-04 из 04] (2012) BDRip | L1

65 | 9

3.01 ГБ




Вы не можете начинать темы
Вы не можете отвечать на сообщения
Вы не можете редактировать свои сообщения
Вы не можете удалять свои сообщения
Вы не можете добавлять вложения

Перейти:  
Для Мосгорсуда, Роскомнадзора и рекламодателей: mosgorsud-torrent[собачка]yandex.ru
 Вход
ppkBB3cker v.2 © 2008-2014 @ PPK
[ Time : 0.053s | 16 Queries | GZIP : Off ]

Торрент трекер RUTOR.IN, Не можете зайти на rutor.org? Какой новый адрес рутор? Какое зеркало рутор? Не работает rutor.org и зеркала? Тогда наш торрент специально для вас. Rutor.in неофициальное зеркало rutor. В случае если у Вас заблокирован rutor или вдруг Вы не можете на него зайти, то Вы без труда сможете скачать бесплатно и без рекламы последние новинки кино, игр, сериалов и прочего у нас, на Rutor.in. Не нужно использовать прокси, чтобы зайти на рутор, достаточно воспользоваться нашим ресурсом. Все новые фильмы, игры, сериалы, книги и музыка за 2013 и 2014 годы через торрент бесплатно. Скачивайте фильмы в хорошем качестве, игры для пк, xbox, playstation без регистрации. У нас вы найдете новые Зарубежные сериалы и Русские сериалы 2013, 2014, 2015 годов. Оставайтесь с нами, качайте любимые фильмы, игры, сериалы, книги и музыку.