img image001 image001 image001 image001 image001 image001 image001 image001 image001 image001 image001 image001 image001 image001 image001

Planets Sun Sun Sun
Статистика раздачи
Автор: Снежана | Размер: 230.97 МБ | Добавлен: 24 июл 2013
Раздают: 49    Качают: 2
Скачать торрент
Скачать торрент
Описание торрента

СообщениеДобавлено: 24 июл 2013 

#77

Информация о фильме
Год выпуска: 2013
Страна: Украина
Жанр: Документальный
Продолжительность: 00:14:55
Перевод: Не требуется
Русские субтитры: нет

Всем кто интересуется документальной информацией и информацией для разума и ума и своего совершенствования. Рекомендую посетить мои раздачи:
Описание: 6 декабря 2012г. всупил в силу закон о Едином Демографическом Реестре, обязывающих каждого гражданина Украины принять биометрические паспорта с RFID-чипами внутри. Видеоролик рассказывает об основных опасностях этого нововведения, и о том как с помощью этого и других нововведений за каждым Украинцем можно будет установить тотальный контроль.

качество: DVDRip
формат: MP4
видеокодек: XviD
аудиокодек: AAC
Видео: XviD, 1280x720, 16:9, 1 969 Kbps, 25.000 fps
Аудио: AAC, 192 Kbps, 44.1 KHz, 2 channels

MediaInfo
General
Format : MPEG-4
Format profile : Base Media / Version 2
Codec ID : mp42
File size : 231 MiB
Duration : 14mn 55s
Overall bit rate mode : Variable
Overall bit rate : 2 163 Kbps
Encoded date : UTC 2013-01-06 10:41:17
Tagged date : UTC 2013-01-06 10:41:17
gsst : 0
gstd : 895918
gssd : B4D58DD05HH1358611438862101
gshh : r2---sn-uv2oxu-3c2e.c.youtube.com

Video
ID : 1
Format : AVC
Format/Info : Advanced Video Codec
Format profile : High@L3.1
Format settings, CABAC : Yes
Format settings, ReFrames : 1 frame
Format settings, GOP : M=1, N=60
Codec ID : avc1
Codec ID/Info : Advanced Video Coding
Duration : 14mn 55s
Bit rate : 1 969 Kbps
Maximum bit rate : 13.5 Mbps
Width : 1 280 pixels
Height : 720 pixels
Display aspect ratio : 16:9
Frame rate mode : Constant
Frame rate : 25.000 fps
Color space : YUV
Chroma subsampling : 4:2:0
Bit depth : 8 bits
Scan type : Progressive
Bits/(Pixel*Frame) : 0.085
Stream size : 210 MiB (91%)
Tagged date : UTC 2013-01-06 10:41:18

Audio
ID : 2
Format : AAC
Format/Info : Advanced Audio Codec
Format profile : LC
Codec ID : 40
Duration : 14mn 55s
Bit rate mode : Variable
Bit rate : 192 Kbps
Maximum bit rate : 202 Kbps
Channel(s) : 2 channels
Channel positions : Front: L R
Sampling rate : 44.1 KHz
Compression mode : Lossy
Stream size : 20.5 MiB (9%)
Title : IsoMedia File Produced by Google, 5-11-2011
Encoded date : UTC 2013-01-06 10:41:18
Tagged date : UTC 2013-01-06 10:41:18







   Похожие торренты   Торрент   Размер 
В этой теме нет новых непрочитанных сообщений. Нейтрализация Дерьма - Под Дьявольским Контролем (2012) MP3

83 | 8

74.87 МБ

В этой теме нет новых непрочитанных сообщений. Gregorian - Epic Chants Tour 2013 (2013) DVDRip от New-Team

8 | 2

2.01 ГБ

В этой теме нет новых непрочитанных сообщений. Биг-Сюр / Big Sur (2013) DVDRip | L1

97 | 18

715.97 МБ

В этой теме нет новых непрочитанных сообщений. Мы / Vi (2013) DVDRip | L1

837 | 51

699.78 МБ

В этой теме нет новых непрочитанных сообщений. Дед 005 (2013) DVDRip

92 | 6

751.98 МБ

В этой теме нет новых непрочитанных сообщений. Мы / Vi (2013) DVDRip | Sub

248 | 19

699.85 МБ

В этой теме нет новых непрочитанных сообщений. Горько (2013) DVDRip

0 | 144

5.51 ГБ




Вы не можете начинать темы
Вы не можете отвечать на сообщения
Вы не можете редактировать свои сообщения
Вы не можете удалять свои сообщения
Вы не можете добавлять вложения

Перейти:  
Для Мосгорсуда, Роскомнадзора и рекламодателей: mosgorsud-torrent[собачка]yandex.ru
 Вход
ppkBB3cker v.2 © 2008-2014 @ PPK
[ Time : 0.022s | 15 Queries | GZIP : Off ]

cron