img image001 image001 image001 image001 image001 image001 image001 image001 image001 image001 image001 image001 image001 image001 image001

Planets Sun Sun Sun
Статистика раздачи
Автор: Снежана | Размер: 5.58 ГБ | Добавлен: 25 июл 2013
Раздают: 13    Качают: 3
Скачать торрент
Скачать торрент
Описание торрента

СообщениеДобавлено: 25 июл 2013 

Откровения пирамид / The Revelation of the Pyramids / La révélation des pyramides (2010) BDRip 720p
Релиз от GYN

«The discovery that changed the world»
Информация о фильме:
Название: Откровения пирамид
Оригинальное название: The Revelation of the Pyramids / La revelation des pyramides
Год выхода: 2010
Жанр: документальный
Режиссёр: Патрис Пуйар / Patrice Pooyard
В ролях: Брайан Кокс / Brian Cox (рассказчик, озвучка, английская версия)
Сюжет фильма:
Многие века тайны Великих Пирамид в Гизе будоражат умы людей. Сотни тысяч туристов со всего мира каждый год отправляются в Египет, чтобы увидеть Великого Сфинкса и Пирамиды Хеопса, Хефрена и Микерина. Путь создателей фильма пролег от Китая до Перу, от Египта до Мексики и от Ближнего Востока до острова Пасхи — по древнейшим, красивейшим и наиболее таинственным местам нашей планеты. Создатели этого документального блокбастера предлагают совершенно новую и непривычную для приверженцев традиционного академического подхода точку зрения на то, что являют собой Великие Пирамиды на самом деле.

Страна: Франция
Продолжительность: 01:41:51
Перевод: Русский профессиональный (многоголосый, закадровый)
Субтитры: Отсутствуют
Информация о файле:
Качество: BDRip 720p
Файл: MKV
Кодек: MPEG-4 AVC, H264 codec
Видео: 1280 x 692, 1.85:1; 25.000 fps; ~ 7153 kbps; 0.330 bit/pixel
Аудио : 48 kHz, AC3 Dolby Digital, 3/2 (L,C,R,l,r) + LFE ch, ~384.00 kbps avg | MVO
Размер: 5.57 Gb

General
Unique ID : 200647878754741864676608139033135308425 (0x96F360343E0500DD90F7ACD3B9245E89)
Complete name : E:La.Revelation.des.Pyramides.2010.-GYN.mkv
Format : Matroska
Format version : Version 2
File size : 5.58 GiB
Duration : 1h 41mn
Overall bit rate mode : Variable
Overall bit rate : 7 843 Kbps
Movie name : La revelation des pyramides (2010)
Encoded date : UTC 2013-01-10 08:27:02
Writing application : mkvmerge v5.7.0 ('The Whirlwind') built on Jul 8 2012 20:08:51
Writing library : libebml v1.2.3 + libmatroska v1.3.0
Video
ID : 1
Format : AVC
Format/Info : Advanced Video Codec
Format profile : High@L4.1
Format settings, CABAC : Yes
Format settings, ReFrames : 6 frames
Muxing mode : Header stripping
Codec ID : V_MPEG4/ISO/AVC
Duration : 1h 41mn
Bit rate mode : Variable
Bit rate : 7 303 Kbps
Maximum bit rate : 7 153 Kbps
Width : 1 280 pixels
Height : 692 pixels
Display aspect ratio : 1.850
Frame rate : 25.000 fps
Color space : YUV
Chroma subsampling : 4:2:0
Bit depth : 8 bits
Scan type : Progressive
Bits/(Pixel*Frame) : 0.330
Stream size : 5.19 GiB (93%)
Title : Encoded by GYN
Default : Yes
Forced : No
Audio
ID : 2
Format : AC-3
Format/Info : Audio Coding 3
Mode extension : CM (complete main)
Muxing mode : Header stripping
Codec ID : A_AC3
Duration : 1h 41mn
Bit rate mode : Constant
Bit rate : 384 Kbps
Channel(s) : 5 channels
Channel positions : Front: L C R, Side: L R
Sampling rate : 48.0 KHz
Bit depth : 16 bits
Compression mode : Lossy
Stream size : 280 MiB (5%)
Title : MVO
Language : Russian
Default : Yes
Forced : No
Menu
00:00:00.000 : en:Chapter 00
00:08:33.120 : en:Chapter 01
00:18:42.720 : en:Chapter 02
00:27:37.920 : en:Chapter 03
00:39:41.280 : en:Chapter 04
00:48:49.440 : en:Chapter 05
00:56:47.520 : en:Chapter 06
01:08:32.160 : en:Chapter 07
01:16:40.800 : en:Chapter 08
01:23:39.360 : en:Chapter 09
01:32:03.840 : en:Chapter 10
01:38:59.040 : en:Chapter 11

Источник: by LibrarianA
ПРИЯТНОГО ПРОСМОТРА!



   Похожие торренты   Торрент   Размер 
В этой теме нет новых непрочитанных сообщений. Откровения пирамид / The Revelation of the Pyramids / La revelation des pyramides (2010) BDRip 720p

7 | 3

3.57 ГБ

В этой теме нет новых непрочитанных сообщений. Откровения пирамид / The Revelation of the Pyramids / La revelation des pyramides (2010) BDRip-AVC от ExKinoRay

115 | 3

2.23 ГБ

В этой теме нет новых непрочитанных сообщений. Откровения пирамид / The Revelation of the Pyramids / La revelation des pyramides (2010) BDRip от HELLYWOOD

126 | 12

1.46 ГБ

В этой теме нет новых непрочитанных сообщений. Откровения пирамид / La revelation des pyramides (2010) DVDRip от Kino@rena

12 | 2

701.89 МБ

В этой теме нет новых непрочитанных сообщений. Откровения пирамид / La revelation des pyramides (2009) BDRip 1080p от NNNB

40 | 4

10.24 ГБ

В этой теме нет новых непрочитанных сообщений. Путь откровения: Начало конца / Revelation Road: The Beginning of the End (2013) BDRip | L2

95 | 10

1.26 ГБ

В этой теме нет новых непрочитанных сообщений. Путь откровения 3 / The Black Rider: Revelation Road (2014) DVDRip | L1

399 | 18

1.46 ГБ




Вы не можете начинать темы
Вы не можете отвечать на сообщения
Вы не можете редактировать свои сообщения
Вы не можете удалять свои сообщения
Вы не можете добавлять вложения

Перейти:  
Для Мосгорсуда, Роскомнадзора и рекламодателей: mosgorsud-torrent[собачка]yandex.ru
 Вход
ppkBB3cker v.2 © 2008-2014 @ PPK
[ Time : 0.058s | 14 Queries | GZIP : Off ]

Торрент трекер RUTOR.IN, Не можете зайти на rutor.org? Какой новый адрес рутор? Какое зеркало рутор? Не работает rutor.org и зеркала? Тогда наш торрент специально для вас. Rutor.in неофициальное зеркало rutor. В случае если у Вас заблокирован rutor или вдруг Вы не можете на него зайти, то Вы без труда сможете скачать бесплатно и без рекламы последние новинки кино, игр, сериалов и прочего у нас, на Rutor.in. Не нужно использовать прокси, чтобы зайти на рутор, достаточно воспользоваться нашим ресурсом. Все новые фильмы, игры, сериалы, книги и музыка за 2013 и 2014 годы через торрент бесплатно. Скачивайте фильмы в хорошем качестве, игры для пк, xbox, playstation без регистрации. У нас вы найдете новые Зарубежные сериалы и Русские сериалы 2013, 2014, 2015 годов. Оставайтесь с нами, качайте любимые фильмы, игры, сериалы, книги и музыку.