img image001 image001 image001 image001 image001 image001 image001 image001 image001 image001 image001 image001 image001 image001 image001

Planets Sun Sun Sun
Статистика раздачи
Автор: Снежана | Размер: 2.1 ГБ | Добавлен: 24 июл 2013
Раздают: 8    Качают: 2
Скачать торрент
Скачать торрент
Описание торрента

СообщениеДобавлено: 24 июл 2013 

#77

Информация о фильме
Название: Прыжок из космоса
Оригинальное название: Space Dive - The Red Bull Stratos Story
Год выхода: 2012
Жанр: Документальный, научно-познавательный, экстрим
Режиссер: Колин Барр

О фильме:
Воскресенье, 14 октября 2012 года... В этот день австрийский парашютист-экстремал Феликс Баумгартнер поднимается на высоту почти 39 километров чтобы совершить нечто невероятное - прыгнуть с парашютом. И он сделал это! Баумгартнер побил одновременно 3 мировых рекорда: самый высокий полёт на стратостате, самый высотный прыжок с парашютом и самое быстрое свободное падение. Он стал первым в истории парашютистом, который преодолел звуковой барьер. Как шла подготовка к этому прыжку? Как проходил свободный полет космического дайвера? Каким последствиям подвергся бы его организм в случае разгерметизации скафандра? И что в итоге произошло с капсулой и баллоном после завершения миссии? Ответы на эти и другие вопросы вы найдете в этом фильме.

Страна: Великобритания, США, BBC, National Geographic Channel
Продолжительность: 01:27:47
Перевод: Профессиональный двухголосый
Дата релиза: 29.01.2013

Файл
Кодек: H.264
Качество: BDRip-AVC
Видео: MPEG-4 AVC, 2600 Кбит/с, 1024x576, 25.000 кадр/с
Звук: Русский, английский (AC3, 2 ch, 192 Кбит/с), немецкий (AC3, 6 ch, 448 Кбит/с)

Общее
Уникальный идентификатор : 247144108999885538720485840224637736067 (0xB9EE3958BB258F4F85340446C9A0D483)
Полное имя : D:1Pryzhok.iz.kosmosa.2012.x264.BDRip.(AVC).ExKinoRay.mkv
Формат : Matroska
Версия формата : Version 2
Размер файла : 2,10 Гбайт
Продолжительность : 1 ч. 27 м.
Общий поток : 3432 Кбит/сек
Название фильма : Pryzhok.iz.kosmosa.2012.x264.BDRip.(AVC).ExKinoRay
Дата кодирования : UTC 2013-01-29 14:43:18
Программа кодирования : mkvmerge v4.0.0 ('The Stars were mine') сборка от Jun 6 2010 16:18:42
Библиотека кодирования : libebml v1.0.0 + libmatroska v1.0.0

Видео
Идентификатор : 1
Формат : AVC
Формат/Информация : Advanced Video Codec
Профиль формата : High@L4.1
Параметр CABAC формата : Да
Параметр ReFrames формата : 8 кадров
Идентификатор кодека : V_MPEG4/ISO/AVC
Продолжительность : 1 ч. 27 м.
Битрейт : 2600 Кбит/сек
Ширина : 1024 пикселя
Высота : 576 пикселей
Соотношение сторон : 16:9
Частота кадров : 25,000 кадров/сек
Цветовое пространство : YUV
Субдискретизация насыщенности : 4:2:0
Битовая глубина : 8 бит
Тип развёртки : Прогрессивная
Бит/(Пиксели*Кадры) : 0.176
Размер потока : 1,55 Гбайт (74%)
Заголовок : Rip by Enigma-Vladislav71
Библиотека кодирования : x264 core 92 r1510 33d382a
Настройки программы : cabac=1 / ref=8 / deblock=1:-2:-2 / analyse=0x3:0x133 / me=umh / subme=10 / psy=1 / psy_rd=1.00:0.00 / mixed_ref=1 / me_range=48 / chroma_me=1 / trellis=2 / 8x8dct=1 / cqm=0 / deadzone=21,11 / fast_pskip=0 / chroma_qp_offset=-2 / threads=3 / sliced_threads=0 / nr=0 / decimate=0 / interlaced=0 / constrained_intra=0 / bframes=8 / b_pyramid=2 / b_adapt=2 / b_bias=0 / direct=3 / wpredb=1 / wpredp=2 / keyint=250 / keyint_min=25 / scenecut=40 / intra_refresh=0 / rc=2pass / mbtree=0 / bitrate=2600 / ratetol=1.0 / qcomp=0.60 / qpmin=10 / qpmax=51 / qpstep=4 / cplxblur=20.0 / qblur=0.5 / ip_ratio=1.40 / pb_ratio=1.30 / aq=1:1.00
Язык : English

Аудио #1
Идентификатор : 2
Формат : AC-3
Формат/Информация : Audio Coding 3
Расширение режима : CM (complete main)
Идентификатор кодека : A_AC3
Продолжительность : 1 ч. 27 м.
Вид битрейта : Постоянный
Битрейт : 192 Кбит/сек
Каналы : 2 канала
Расположение каналов : Front: L R
Частота : 48,0 КГц
Битовая глубина : 16 бит
Метод сжатия : С потерями
Размер потока : 121 Мбайт (6%)
Язык : Russian

Аудио #2
Идентификатор : 3
Формат : AC-3
Формат/Информация : Audio Coding 3
Расширение режима : CM (complete main)
Идентификатор кодека : A_AC3
Продолжительность : 1 ч. 27 м.
Вид битрейта : Постоянный
Битрейт : 192 Кбит/сек
Каналы : 2 канала
Расположение каналов : Front: L R
Частота : 48,0 КГц
Битовая глубина : 16 бит
Метод сжатия : С потерями
Размер потока : 121 Мбайт (6%)
Язык : English

Аудио #3
Идентификатор : 4
Формат : AC-3
Формат/Информация : Audio Coding 3
Расширение режима : CM (complete main)
Идентификатор кодека : A_AC3
Продолжительность : 1 ч. 27 м.
Вид битрейта : Постоянный
Битрейт : 448 Кбит/сек
Каналы : 6 каналов
Расположение каналов : Front: L C R, Side: L R, LFE
Частота : 48,0 КГц
Битовая глубина : 16 бит
Метод сжатия : С потерями
Размер потока : 281 Мбайт (13%)
Заголовок : немецкий

Семпл


Релиз от:

Авторы релиза:



   Похожие торренты   Торрент   Размер 
В этой теме нет новых непрочитанных сообщений. Прыжок из космоса / Space Dive (2012) BDRip от Filmoff CLUB

77 | 4

1.45 ГБ

В этой теме нет новых непрочитанных сообщений. Прыжок из космоса (2002) DVB

12 | 1

553.06 МБ

В этой теме нет новых непрочитанных сообщений. Прыжок с пирса Клозен / The Dive from Clausen's Pier (2005) SATRip

2 | 6

1.06 ГБ

В этой теме нет новых непрочитанных сообщений. Прыжок из космоса (2002) SATRip от torrentfilm

14 | 2

299.81 МБ

В этой теме нет новых непрочитанных сообщений. Виды из космоса и райская музыка / A View From Space with Heavenly Music (2006) HDDVDRip-AVC от ExKinoRay

21 | 8

1019.46 МБ

В этой теме нет новых непрочитанных сообщений. Исследователь открытого Космоса / Deep Space Explorer (2010) BDRip

0 | 42

1.88 ГБ

В этой теме нет новых непрочитанных сообщений. Маппет - шоу из космоса / Muppets from Space (1999) BDRip 720p от FireBit

98 | 2

3.42 ГБ




Вы не можете начинать темы
Вы не можете отвечать на сообщения
Вы не можете редактировать свои сообщения
Вы не можете удалять свои сообщения
Вы не можете добавлять вложения

Перейти:  
Для Мосгорсуда, Роскомнадзора и рекламодателей: mosgorsud-torrent[собачка]yandex.ru
 Вход
ppkBB3cker v.2 © 2008-2014 @ PPK
[ Time : 2.727s | 15 Queries | GZIP : Off ]

Торрент трекер RUTOR.IN, Не можете зайти на rutor.org? Какой новый адрес рутор? Какое зеркало рутор? Не работает rutor.org и зеркала? Тогда наш торрент специально для вас. Rutor.in неофициальное зеркало rutor. В случае если у Вас заблокирован rutor или вдруг Вы не можете на него зайти, то Вы без труда сможете скачать бесплатно и без рекламы последние новинки кино, игр, сериалов и прочего у нас, на Rutor.in. Не нужно использовать прокси, чтобы зайти на рутор, достаточно воспользоваться нашим ресурсом. Все новые фильмы, игры, сериалы, книги и музыка за 2013 и 2014 годы через торрент бесплатно. Скачивайте фильмы в хорошем качестве, игры для пк, xbox, playstation без регистрации. У нас вы найдете новые Зарубежные сериалы и Русские сериалы 2013, 2014, 2015 годов. Оставайтесь с нами, качайте любимые фильмы, игры, сериалы, книги и музыку.
cron