img image001 image001 image001 image001 image001 image001 image001 image001 image001 image001 image001 image001 image001 image001 image001

Planets Sun Sun Sun
Статистика раздачи
Автор: Снежана | Размер: 5.76 ГБ | Добавлен: 25 июл 2013
Раздают: 49    Качают: 6
Скачать торрент
Скачать торрент
Описание торрента

СообщениеДобавлено: 25 июл 2013 

#77

Информация о фильме
Название: Барака
Оригинальное название: Baraka
Год выхода: 1992
Жанр: документальный
Режиссер: Рон Фрике
В ролях: Планета Земля (24 страны)

О фильме: Непрерывный видеоряд, в который вошли кадры красивейших мест планеты, необычные ритуальные обряды различных племен, съемки жизни в городе и многое другое. Все это под соответствующее звуковое оформление, которое еще больше привязывает к экрану.



Выпущено: Magidson Films
Продолжительность: 01:37:49
Перевод: Не требуется

Файл
Кодек: x264
Качество: BDRip (источник: Blu-ray Disc)
Видео: 1920x880 (2,20:1), 23.976 fps, 7790 kbps
Аудио: AC-3, 6 ch, 640 kbps
Субтитры: Английские
Скачать: сэмпл

Скриншоты

Общее
Уникальный идентификатор : 239700330593494419169975487140702942644 (0xB4549ABC6151F40F820B46B84F7375B4)
Полное имя : Baraka.1992.BDRip.1080p.Eng.mkv
Формат : Matroska
Версия формата : Version 2
Размер файла : 5,76 Гбайт
Продолжительность : 1 ч. 37 м.
Общий поток : 8428 Кбит/сек
Название фильма : Барака / Baraka (1992)
Дата кодирования : UTC 2013-02-03 20:43:36
Программа кодирования : mkvmerge v5.8.0 ('No Sleep / Pillow') built on Sep 2 2012 15:37:04
Библиотека кодирования : libebml v1.2.3 + libmatroska v1.3.0

Видео
Идентификатор : 1
Формат : AVC
Формат/Информация : Advanced Video Codec
Профиль формата : High@L4.1
Параметр CABAC формата : Да
Параметр ReFrames формата : 4 кадра
Идентификатор кодека : V_MPEG4/ISO/AVC
Продолжительность : 1 ч. 37 м.
Битрейт : 7790 Кбит/сек
Ширина : 1920 пикселей
Высота : 880 пикселей
Соотношение сторон : 2,2:1
Частота кадров : 23,976 кадра/сек
Цветовое пространство : YUV
Субдискретизация насыщенности : 4:2:0
Битовая глубина : 8 бит
Тип развёртки : Прогрессивная
Бит/(Пиксели*Кадры) : 0.192
Размер потока : 5,21 Гбайт (90%)
Заголовок : Release by AlexKa
Библиотека кодирования : x264 core 129 r2245 bc13772
Настройки программы : cabac=1 / ref=4 / deblock=1:-3:-3 / analyse=0x3:0x133 / me=umh / subme=11 / psy=1 / psy_rd=1.00:0.00 / mixed_ref=1 / me_range=32 / chroma_me=1 / trellis=2 / 8x8dct=1 / cqm=0 / deadzone=21,11 / fast_pskip=0 / chroma_qp_offset=-2 / threads=12 / lookahead_threads=2 / sliced_threads=0 / nr=0 / decimate=0 / interlaced=0 / bluray_compat=0 / constrained_intra=0 / bframes=5 / b_pyramid=2 / b_adapt=2 / b_bias=0 / direct=3 / weightb=1 / open_gop=0 / weightp=2 / keyint=240 / keyint_min=23 / scenecut=40 / intra_refresh=0 / rc=2pass / mbtree=0 / bitrate=7790 / ratetol=1.0 / qcomp=0.60 / qpmin=0 / qpmax=69 / qpstep=4 / cplxblur=20.0 / qblur=0.5 / ip_ratio=1.40 / pb_ratio=1.30 / aq=1:0.80
Язык : English

Аудио
Идентификатор : 2
Формат : AC-3
Формат/Информация : Audio Coding 3
Расширение режима : CM (complete main)
Идентификатор кодека : A_AC3
Продолжительность : 1 ч. 37 м.
Вид битрейта : Постоянный
Битрейт : 640 Кбит/сек
Каналы : 6 каналов
Расположение каналов : Front: L C R, Side: L R, LFE
Частота : 48,0 КГц
Битовая глубина : 16 бит
Метод сжатия : С потерями
Размер потока : 448 Мбайт (8%)
Язык : English

Текст
Идентификатор : 3
Формат : UTF-8
Идентификатор кодека : S_TEXT/UTF8
Идентификатор кодека/Информация : UTF-8 Plain Text
Язык : English

Меню
00:00:00.000 : :Chapter 01
00:03:33.296 : :Chapter 02
00:06:20.838 : :Chapter 03
00:11:58.592 : :Chapter 04
00:15:52.117 : :Chapter 05
00:21:48.932 : :Chapter 06
00:24:08.530 : :Chapter 07
00:26:55.947 : :Chapter 08
00:30:02.133 : :Chapter 09
00:33:35.179 : :Chapter 10
00:38:26.846 : :Chapter 11
00:40:56.287 : :Chapter 12
00:47:52.035 : :Chapter 13
00:51:36.093 : :Chapter 14
00:55:45.592 : :Chapter 15
00:58:52.487 : :Chapter 16
01:02:07.515 : :Chapter 17
01:06:47.545 : :Chapter 18
01:12:49.281 : :Chapter 19
01:19:39.858 : :Chapter 20
01:25:29.582 : :Chapter 21
01:30:51.320 : :Chapter 22
01:37:48.779 : :Chapter 23
x264 [info]: frame I:744 Avg QP:17.51 size:237206
x264 [info]: frame P:32267 Avg QP:20.20 size: 81029
x264 [info]: frame B:107705 Avg QP:22.00 size: 27120



   Похожие торренты   Торрент   Размер 
В этой теме нет новых непрочитанных сообщений. Барака / Baraka (1992) Blu-ray Remux 1080p

64 | 4

26.37 ГБ

В этой теме нет новых непрочитанных сообщений. Барака / Baraka (1992) BDRip от HQ-ViDEO

205 | 4

1.46 ГБ

В этой теме нет новых непрочитанных сообщений. Барака / Baraka (1992) BDRip от HQCLUB

90 | 11

1.45 ГБ

В этой теме нет новых непрочитанных сообщений. Барака / Baraka (1992) BDRip 720p

22 | 8

3.4 ГБ

В этой теме нет новых непрочитанных сообщений. Барака / Baraka (1992) BDRip от HQCLUB

22 | 3

1.45 ГБ

В этой теме нет новых непрочитанных сообщений. Барака / Baraka (1992) DVD5

4 | 2

4.32 ГБ

В этой теме нет новых непрочитанных сообщений. Барака / Baraka (1992) DVD9

3 | 2

6.12 ГБ




Вы не можете начинать темы
Вы не можете отвечать на сообщения
Вы не можете редактировать свои сообщения
Вы не можете удалять свои сообщения
Вы не можете добавлять вложения

Перейти:  
Для Мосгорсуда, Роскомнадзора и рекламодателей: mosgorsud-torrent[собачка]yandex.ru
 Вход
ppkBB3cker v.2 © 2008-2014 @ PPK
[ Time : 5.957s | 14 Queries | GZIP : On ]

Торрент трекер RUTOR.IN, Не можете зайти на rutor.org? Какой новый адрес рутор? Какое зеркало рутор? Не работает rutor.org и зеркала? Тогда наш торрент специально для вас. Rutor.in неофициальное зеркало rutor. В случае если у Вас заблокирован rutor или вдруг Вы не можете на него зайти, то Вы без труда сможете скачать бесплатно и без рекламы последние новинки кино, игр, сериалов и прочего у нас, на Rutor.in. Не нужно использовать прокси, чтобы зайти на рутор, достаточно воспользоваться нашим ресурсом. Все новые фильмы, игры, сериалы, книги и музыка за 2013 и 2014 годы через торрент бесплатно. Скачивайте фильмы в хорошем качестве, игры для пк, xbox, playstation без регистрации. У нас вы найдете новые Зарубежные сериалы и Русские сериалы 2013, 2014, 2015 годов. Оставайтесь с нами, качайте любимые фильмы, игры, сериалы, книги и музыку.