img image001 image001 image001 image001 image001 image001 image001 image001 image001 image001 image001 image001 image001 image001 image001

Planets Sun Sun Sun
Статистика раздачи
Автор: Снежана | Размер: 38.81 ГБ | Добавлен: 25 июл 2013
Раздают: 0    Качают: 2
Скачать торрент
Скачать торрент
Описание торрента

СообщениеДобавлено: 25 июл 2013 

#77

Название: Вселенная
Оригинальное название: The Universe
Год выпуска: 2008
Жанр: Документальный, научно-познавательный, исследование, природа, космос
Режиссер: Лаура Верклан, Тони Лонг, Колин Кэмпбелл, Дуглас Коэн, Эндрю Нок, Дэррил Рейр
В ролях: Нил Тайсон, Джефф Марси, Роб Рой Бритт, Мишель Тэллер, Алекс Филиппенко, Лаура Дэнли, Уильям Хартманн, Эйми Мейнзер, Мичио Каку, Нэйт МакКрейди, Кевин Бэйнс, Джошуа Барнс, д-р Кевин Р. Грейзер

Описание: В этом сериале с помощью современной компьютерной графики и, основываясь на передовых исследованиях в области космоса, создатели фильма смогли воссоздать то, что происходит на других планетах, в других галактиках, вообразить какие формы жизни могли бы развиться в других атмосферах. Вы сможете увидеть космические бедствия, параллельные вселенные, скорость света и узнать многое другое о тайнах космоса.



Страна: США, Flight 33 Productions
Продолжительность: 12 х ~ 00:45:00
Перевод: Авторский (одноголосый, закадровый) - Александр Дасевич
Субтитры: Русские, английские

Качество: BDRip 1080p
Формат: MKV
Видео: MPEG-4 AVC, ~8900 Kбит/с, 1920x1080
Аудио rus: DTS, 2 ch, 755 Кбит/с
Аудио eng: DTS, 2 ch, 755 Кбит/с

Авторский одноголосый (текст читает Александр Дасевич)
Перевод и озвучивание осуществлены в рамках сервиса "Озвучивание". Спонсоры: levanevski, HPotter, LibrarianA, ork2010, gelom, Turko, Nefrite, norvk, alvane, Acoustic, burdyuk, Cheetah, XIOPS, khapev2, yarik1984, CtrlSoft, Trottor, Cheetah, DeTorquemada, Кириллка, Armless
01. Deep Space Disasters / Космические катастрофы
02. Параллельные вселенные / Parallel Universes
03. Скорость света / Light Speed
04. Секс в пространстве / Sex in Space
05. Чужеродные лица / Alien Faces
06. Смертельные кометы и метеоры / Deadly Comets and Meteors
07. Жизнь в космосе / Living In Space
08. Остановить армагеддон / Stopping Armageddon
09. Другая Земля / Another Earth
10. Странные вещи / Strangest Things
11. На краю космоса / Edge of Space
12. Космические феномены / Cosmic Phenomena
D:HDCLUBThe.Universe.S03.2008.1080p.BluRay.Rus.Eng.HDCLUBThe.Universe.S03E01.2008.1080p.BluRay.Rus.Eng.HDCLUB.mkv
General
Unique ID : 171032244047301596153084862970159095126 (0x80AB9CADC735DB029293233F332EDD56)
Complete name : D:HDCLUBThe.Universe.S03.2008.1080p.BluRay.Rus.Eng.HDCLUBThe.Universe.S03E01.2008.1080p.BluRay.Rus.Eng.HDCLUB.mkv
Format : Matroska
File size : 3.23 GiB
Duration : 44mn 28s
Overall bit rate : 10.4 Mbps
Movie name : The Universe S03E01 - Deep Space Disasters - Release for HDCLUB
Encoded date : UTC 2012-05-12 07:40:24
Writing application : mkvmerge v3.4.0 ('Rapunzel') built on May 15 2010 09:38:20
Writing library : libebml v0.8.0 + libmatroska v0.9.0
Video #1
ID : 1
Format : AVC
Format/Info : Advanced Video Codec
Format profile : High@L4.1
Format settings, CABAC : Yes
Format settings, ReFrames : 4 frames
Codec ID : V_MPEG4/ISO/AVC
Duration : 44mn 28s
Bit rate : 8 898 Kbps
Width : 1 920 pixels
Height : 1 080 pixels
Display aspect ratio : 16:9
Frame rate : 23.976 fps
Color space : YUV
Chroma subsampling : 4:2:0
Bit depth : 8 bits
Scan type : Progressive
Bits/(Pixel*Frame) : 0.179
Stream size : 2.70 GiB (84%)
Title : Release for HDCLUB
Writing library : x264 core 75 r1259M dd026f2
Encoding settings : cabac=1 / ref=4 / deblock=1:-3:-3 / analyse=0x3:0x113 / me=umh / subme=9 / psy=1 / psy_rd=1.5:0.0 / mixed_ref=1 / me_range=24 / chroma_me=1 / trellis=2 / 8x8dct=1 / cqm=0 / deadzone=21,11 / chroma_qp_offset=-2 / threads=6 / nr=0 / decimate=1 / mbaff=0 / bframes=6 / b_pyramid=0 / b_adapt=2 / b_bias=0 / direct=3 / wpredb=1 / keyint=250 / keyint_min=25 / scenecut=40 / rc_lookahead=70 / rc=2pass / mbtree=1 / bitrate=8898 / ratetol=1.0 / qcomp=0.80 / qpmin=10 / qpmax=51 / qpstep=4 / cplxblur=20.0 / qblur=0.5 / ip_ratio=1.30 / aq=1:0.80
Language : English
Audio #2
ID : 2
Format : DTS
Format/Info : Digital Theater Systems
Codec ID : A_DTS
Duration : 44mn 28s
Bit rate mode : Constant
Bit rate : 755 Kbps
Channel(s) : 2 channels
Channel positions : Front: L R
Sampling rate : 48.0 KHz
Bit depth : 16 bits
Compression mode : Lossy
Stream size : 240 MiB (7%)
Title : DTS 2.0 @ 768 kbps - Одноголосый закадровый, А.Дасевич
Language : Russian
Audio #3
ID : 3
Format : DTS
Format/Info : Digital Theater Systems
Codec ID : A_DTS
Duration : 44mn 28s
Bit rate mode : Constant
Bit rate : 755 Kbps
Channel(s) : 2 channels
Channel positions : Front: L R
Sampling rate : 48.0 KHz
Bit depth : 24 bits
Compression mode : Lossy
Stream size : 240 MiB (7%)
Title : DTS 2.0 @ 768 kbps
Language : English
Text #4
ID : 4
Format : UTF-8
Codec ID : S_TEXT/UTF8
Codec ID/Info : UTF-8 Plain Text
Language : Russian
Text #5
ID : 5
Format : UTF-8
Codec ID : S_TEXT/UTF8
Codec ID/Info : UTF-8 Plain Text
Language : English

D:HDCLUBThe.Universe.S03.2008.1080p.BluRay.Rus.Eng.HDCLUBThe.Universe.S03E02.2008.1080p.BluRay.Rus.Eng.HDCLUB.mkv
General
Unique ID : 216501643469138957803444609571603968958 (0xA2E0B3272EB39114B9539F6297FD73BE)
Complete name : D:HDCLUBThe.Universe.S03.2008.1080p.BluRay.Rus.Eng.HDCLUBThe.Universe.S03E02.2008.1080p.BluRay.Rus.Eng.HDCLUB.mkv
Format : Matroska
File size : 3.23 GiB
Duration : 44mn 30s
Overall bit rate : 10.4 Mbps
Movie name : The Universe S03E02 - Parallel Universes - Release for HDCLUB
Encoded date : UTC 2012-05-12 07:26:17
Writing application : mkvmerge v3.4.0 ('Rapunzel') built on May 15 2010 09:38:20
Writing library : libebml v0.8.0 + libmatroska v0.9.0
Video #1
ID : 1
Format : AVC
Format/Info : Advanced Video Codec
Format profile : High@L4.1
Format settings, CABAC : Yes
Format settings, ReFrames : 4 frames
Codec ID : V_MPEG4/ISO/AVC
Duration : 44mn 30s
Bit rate : 8 891 Kbps
Width : 1 920 pixels
Height : 1 080 pixels
Display aspect ratio : 16:9
Frame rate : 23.976 fps
Color space : YUV
Chroma subsampling : 4:2:0
Bit depth : 8 bits
Scan type : Progressive
Bits/(Pixel*Frame) : 0.179
Stream size : 2.70 GiB (84%)
Title : Release for HDCLUB
Writing library : x264 core 75 r1259M dd026f2
Encoding settings : cabac=1 / ref=4 / deblock=1:-3:-3 / analyse=0x3:0x113 / me=umh / subme=9 / psy=1 / psy_rd=1.5:0.0 / mixed_ref=1 / me_range=24 / chroma_me=1 / trellis=2 / 8x8dct=1 / cqm=0 / deadzone=21,11 / chroma_qp_offset=-2 / threads=6 / nr=0 / decimate=1 / mbaff=0 / bframes=6 / b_pyramid=0 / b_adapt=2 / b_bias=0 / direct=3 / wpredb=1 / keyint=250 / keyint_min=25 / scenecut=40 / rc_lookahead=70 / rc=2pass / mbtree=1 / bitrate=8891 / ratetol=1.0 / qcomp=0.80 / qpmin=10 / qpmax=51 / qpstep=4 / cplxblur=20.0 / qblur=0.5 / ip_ratio=1.30 / aq=1:0.80
Language : English
Audio #2
ID : 2
Format : DTS
Format/Info : Digital Theater Systems
Codec ID : A_DTS
Duration : 44mn 30s
Bit rate mode : Constant
Bit rate : 755 Kbps
Channel(s) : 2 channels
Channel positions : Front: L R
Sampling rate : 48.0 KHz
Bit depth : 16 bits
Compression mode : Lossy
Stream size : 240 MiB (7%)
Title : DTS 2.0 @ 768 kbps - Одноголосый закадровый, А.Дасевич
Language : Russian
Audio #3
ID : 3
Format : DTS
Format/Info : Digital Theater Systems
Codec ID : A_DTS
Duration : 44mn 30s
Bit rate mode : Constant
Bit rate : 755 Kbps
Channel(s) : 2 channels
Channel positions : Front: L R
Sampling rate : 48.0 KHz
Bit depth : 24 bits
Compression mode : Lossy
Stream size : 240 MiB (7%)
Title : DTS 2.0 @ 768 kbps
Language : English
Text #4
ID : 4
Format : UTF-8
Codec ID : S_TEXT/UTF8
Codec ID/Info : UTF-8 Plain Text
Language : Russian
Text #5
ID : 5
Format : UTF-8
Codec ID : S_TEXT/UTF8
Codec ID/Info : UTF-8 Plain Text
Language : English

D:HDCLUBThe.Universe.S03.2008.1080p.BluRay.Rus.Eng.HDCLUBThe.Universe.S03E03.2008.1080p.BluRay.Rus.Eng.HDCLUB.mkv
General
Unique ID : 217365226341463383035151385264334492640 (0xA387051371DB3018A64FE73633EED3E0)
Complete name : D:HDCLUBThe.Universe.S03.2008.1080p.BluRay.Rus.Eng.HDCLUBThe.Universe.S03E03.2008.1080p.BluRay.Rus.Eng.HDCLUB.mkv
Format : Matroska
File size : 3.23 GiB
Duration : 44mn 27s
Overall bit rate : 10.4 Mbps
Movie name : The Universe S03E03 - Light Speed - Release for HDCLUB
Encoded date : UTC 2012-06-07 18:53:01
Writing application : mkvmerge v3.4.0 ('Rapunzel') built on May 15 2010 09:38:20
Writing library : libebml v0.8.0 + libmatroska v0.9.0
Video #1
ID : 1
Format : AVC
Format/Info : Advanced Video Codec
Format profile : High@L4.1
Format settings, CABAC : Yes
Format settings, ReFrames : 4 frames
Codec ID : V_MPEG4/ISO/AVC
Duration : 44mn 27s
Bit rate : 8 900 Kbps
Width : 1 920 pixels
Height : 1 080 pixels
Display aspect ratio : 16:9
Frame rate : 23.976 fps
Color space : YUV
Chroma subsampling : 4:2:0
Bit depth : 8 bits
Scan type : Progressive
Bits/(Pixel*Frame) : 0.179
Stream size : 2.70 GiB (84%)
Title : Release for HDCLUB
Writing library : x264 core 75 r1259M dd026f2
Encoding settings : cabac=1 / ref=4 / deblock=1:-3:-3 / analyse=0x3:0x113 / me=umh / subme=9 / psy=1 / psy_rd=1.5:0.0 / mixed_ref=1 / me_range=24 / chroma_me=1 / trellis=2 / 8x8dct=1 / cqm=0 / deadzone=21,11 / chroma_qp_offset=-2 / threads=6 / nr=0 / decimate=1 / mbaff=0 / bframes=6 / b_pyramid=0 / b_adapt=2 / b_bias=0 / direct=3 / wpredb=1 / keyint=250 / keyint_min=25 / scenecut=40 / rc_lookahead=70 / rc=2pass / mbtree=1 / bitrate=8900 / ratetol=1.0 / qcomp=0.80 / qpmin=10 / qpmax=51 / qpstep=4 / cplxblur=20.0 / qblur=0.5 / ip_ratio=1.30 / aq=1:0.80
Language : English
Audio #2
ID : 2
Format : DTS
Format/Info : Digital Theater Systems
Codec ID : A_DTS
Duration : 44mn 27s
Bit rate mode : Constant
Bit rate : 755 Kbps
Channel(s) : 2 channels
Channel positions : Front: L R
Sampling rate : 48.0 KHz
Bit depth : 16 bits
Compression mode : Lossy
Stream size : 240 MiB (7%)
Title : DTS 2.0 @ 768 kbps - Одноголосый закадровый, А.Дасевич
Language : Russian
Audio #3
ID : 3
Format : DTS
Format/Info : Digital Theater Systems
Codec ID : A_DTS
Duration : 44mn 27s
Bit rate mode : Constant
Bit rate : 755 Kbps
Channel(s) : 2 channels
Channel positions : Front: L R
Sampling rate : 48.0 KHz
Bit depth : 24 bits
Compression mode : Lossy
Stream size : 240 MiB (7%)
Title : DTS 2.0 @ 768 kbps
Language : English
Text #4
ID : 4
Format : UTF-8
Codec ID : S_TEXT/UTF8
Codec ID/Info : UTF-8 Plain Text
Language : Russian
Text #5
ID : 5
Format : UTF-8
Codec ID : S_TEXT/UTF8
Codec ID/Info : UTF-8 Plain Text
Language : English

D:HDCLUBThe.Universe.S03.2008.1080p.BluRay.Rus.Eng.HDCLUBThe.Universe.S03E04.2008.1080p.BluRay.Rus.Eng.HDCLUB.mkv
General
Unique ID : 222290680883234324223019340474992770985 (0xA73BA0BBE65F5E03BEAA75B332573FA9)
Complete name : D:HDCLUBThe.Universe.S03.2008.1080p.BluRay.Rus.Eng.HDCLUBThe.Universe.S03E04.2008.1080p.BluRay.Rus.Eng.HDCLUB.mkv
Format : Matroska
File size : 3.23 GiB
Duration : 44mn 27s
Overall bit rate : 10.4 Mbps
Movie name : The Universe S03E04 - Sex in Space - Release for HDCLUB
Encoded date : UTC 2012-07-21 14:05:32
Writing application : mkvmerge v3.4.0 ('Rapunzel') built on May 15 2010 09:38:20
Writing library : libebml v0.8.0 + libmatroska v0.9.0
Video #1
ID : 1
Format : AVC
Format/Info : Advanced Video Codec
Format profile : High@L4.1
Format settings, CABAC : Yes
Format settings, ReFrames : 4 frames
Codec ID : V_MPEG4/ISO/AVC
Duration : 44mn 27s
Bit rate : 8 901 Kbps
Width : 1 920 pixels
Height : 1 080 pixels
Display aspect ratio : 16:9
Frame rate : 23.976 fps
Color space : YUV
Chroma subsampling : 4:2:0
Bit depth : 8 bits
Scan type : Progressive
Bits/(Pixel*Frame) : 0.179
Stream size : 2.70 GiB (84%)
Title : Release for HDCLUB
Writing library : x264 core 75 r1259M dd026f2
Encoding settings : cabac=1 / ref=4 / deblock=1:-3:-3 / analyse=0x3:0x113 / me=umh / subme=9 / psy=1 / psy_rd=1.5:0.0 / mixed_ref=1 / me_range=24 / chroma_me=1 / trellis=2 / 8x8dct=1 / cqm=0 / deadzone=21,11 / chroma_qp_offset=-2 / threads=6 / nr=0 / decimate=1 / mbaff=0 / bframes=6 / b_pyramid=0 / b_adapt=2 / b_bias=0 / direct=3 / wpredb=1 / keyint=250 / keyint_min=25 / scenecut=40 / rc_lookahead=70 / rc=2pass / mbtree=1 / bitrate=8901 / ratetol=1.0 / qcomp=0.80 / qpmin=10 / qpmax=51 / qpstep=4 / cplxblur=20.0 / qblur=0.5 / ip_ratio=1.30 / aq=1:0.80
Language : English
Audio #2
ID : 2
Format : DTS
Format/Info : Digital Theater Systems
Codec ID : A_DTS
Duration : 44mn 27s
Bit rate mode : Constant
Bit rate : 755 Kbps
Channel(s) : 2 channels
Channel positions : Front: L R
Sampling rate : 48.0 KHz
Bit depth : 16 bits
Compression mode : Lossy
Stream size : 240 MiB (7%)
Title : DTS 2.0 @ 768 kbps - Одноголосый закадровый, А.Дасевич
Language : Russian
Audio #3
ID : 3
Format : DTS
Format/Info : Digital Theater Systems
Codec ID : A_DTS
Duration : 44mn 27s
Bit rate mode : Constant
Bit rate : 755 Kbps
Channel(s) : 2 channels
Channel positions : Front: L R
Sampling rate : 48.0 KHz
Bit depth : 24 bits
Compression mode : Lossy
Stream size : 240 MiB (7%)
Title : DTS 2.0 @ 768 kbps
Language : English
Text #4
ID : 4
Format : UTF-8
Codec ID : S_TEXT/UTF8
Codec ID/Info : UTF-8 Plain Text
Language : Russian
Text #5
ID : 5
Format : UTF-8
Codec ID : S_TEXT/UTF8
Codec ID/Info : UTF-8 Plain Text
Language : English

D:HDCLUBThe.Universe.S03.2008.1080p.BluRay.Rus.Eng.HDCLUBThe.Universe.S03E05.2008.1080p.BluRay.Rus.Eng.HDCLUB.mkv
General
Unique ID : 202111998739962043629266371154666743310 (0x980D5AE483368F92BD0D2EC24BE6660E)
Complete name : D:HDCLUBThe.Universe.S03.2008.1080p.BluRay.Rus.Eng.HDCLUBThe.Universe.S03E05.2008.1080p.BluRay.Rus.Eng.HDCLUB.mkv
Format : Matroska
File size : 3.23 GiB
Duration : 44mn 29s
Overall bit rate : 10.4 Mbps
Movie name : The Universe S03E05 - Alien Faces - Release for HDCLUB
Encoded date : UTC 2012-09-14 21:51:46
Writing application : mkvmerge v3.4.0 ('Rapunzel') built on May 15 2010 09:38:20
Writing library : libebml v0.8.0 + libmatroska v0.9.0
Video #1
ID : 1
Format : AVC
Format/Info : Advanced Video Codec
Format profile : High@L4.1
Format settings, CABAC : Yes
Format settings, ReFrames : 4 frames
Codec ID : V_MPEG4/ISO/AVC
Duration : 44mn 29s
Bit rate : 8 893 Kbps
Width : 1 920 pixels
Height : 1 080 pixels
Display aspect ratio : 16:9
Frame rate : 23.976 fps
Color space : YUV
Chroma subsampling : 4:2:0
Bit depth : 8 bits
Scan type : Progressive
Bits/(Pixel*Frame) : 0.179
Stream size : 2.70 GiB (84%)
Title : Release for HDCLUB
Writing library : x264 core 75 r1259M dd026f2
Encoding settings : cabac=1 / ref=4 / deblock=1:-3:-3 / analyse=0x3:0x113 / me=umh / subme=9 / psy=1 / psy_rd=1.5:0.0 / mixed_ref=1 / me_range=24 / chroma_me=1 / trellis=2 / 8x8dct=1 / cqm=0 / deadzone=21,11 / chroma_qp_offset=-2 / threads=6 / nr=0 / decimate=1 / mbaff=0 / bframes=6 / b_pyramid=0 / b_adapt=2 / b_bias=0 / direct=3 / wpredb=1 / keyint=250 / keyint_min=25 / scenecut=40 / rc_lookahead=40 / rc=2pass / mbtree=1 / bitrate=8893 / ratetol=1.0 / qcomp=0.80 / qpmin=10 / qpmax=51 / qpstep=4 / cplxblur=20.0 / qblur=0.5 / ip_ratio=1.30 / aq=1:0.80
Language : English
Audio #2
ID : 2
Format : DTS
Format/Info : Digital Theater Systems
Codec ID : A_DTS
Duration : 44mn 29s
Bit rate mode : Constant
Bit rate : 755 Kbps
Channel(s) : 2 channels
Channel positions : Front: L R
Sampling rate : 48.0 KHz
Bit depth : 16 bits
Compression mode : Lossy
Stream size : 240 MiB (7%)
Title : DTS 2.0 @ 768 kbps - Одноголосый закадровый, А.Дасевич
Language : Russian
Audio #3
ID : 3
Format : DTS
Format/Info : Digital Theater Systems
Codec ID : A_DTS
Duration : 44mn 29s
Bit rate mode : Constant
Bit rate : 755 Kbps
Channel(s) : 2 channels
Channel positions : Front: L R
Sampling rate : 48.0 KHz
Bit depth : 24 bits
Compression mode : Lossy
Stream size : 240 MiB (7%)
Title : DTS 2.0 @ 768 kbps
Language : English
Text #4
ID : 4
Format : UTF-8
Codec ID : S_TEXT/UTF8
Codec ID/Info : UTF-8 Plain Text
Language : Russian
Text #5
ID : 5
Format : UTF-8
Codec ID : S_TEXT/UTF8
Codec ID/Info : UTF-8 Plain Text
Language : English


Релиз от:



   Похожие торренты   Торрент   Размер 
В этой теме нет новых непрочитанных сообщений. Вселенная / The Universe [S03] (2008) BDRip 1080p | P1

35 | 23

34.61 ГБ

В этой теме нет новых непрочитанных сообщений. Вселенная / The Universe [S03] (2008) Blu-Ray 1080p | A

0 | 3

112.62 ГБ

В этой теме нет новых непрочитанных сообщений. Вселенная / The Universe [S03] (2008) BDRip | A

5 | 4

7.85 ГБ

В этой теме нет новых непрочитанных сообщений. Вселенная / The Universe [S03] (2008) BDRip 720p от GYN | А

3 | 2

33.49 ГБ

В этой теме нет новых непрочитанных сообщений. Вселенная / The Universe [S02] (2007-2008) BDRip 720p от GYN | А

5 | 4

50.09 ГБ

В этой теме нет новых непрочитанных сообщений. Вселенная / The Universe [S01] (2007) BDRip 1080p | P2

8 | 5

64.25 ГБ

В этой теме нет новых непрочитанных сообщений. Вселенная / The Universe [S02] (2007) BDRip 1080p | P1

27 | 8

61.94 ГБ




Вы не можете начинать темы
Вы не можете отвечать на сообщения
Вы не можете редактировать свои сообщения
Вы не можете удалять свои сообщения
Вы не можете добавлять вложения

Перейти:  
Для Мосгорсуда, Роскомнадзора и рекламодателей: mosgorsud-torrent[собачка]yandex.ru
 Вход
ppkBB3cker v.2 © 2008-2014 @ PPK
[ Time : 0.557s | 15 Queries | GZIP : Off ]

Торрент трекер RUTOR.IN, Не можете зайти на rutor.org? Какой новый адрес рутор? Какое зеркало рутор? Не работает rutor.org и зеркала? Тогда наш торрент специально для вас. Rutor.in неофициальное зеркало rutor. В случае если у Вас заблокирован rutor или вдруг Вы не можете на него зайти, то Вы без труда сможете скачать бесплатно и без рекламы последние новинки кино, игр, сериалов и прочего у нас, на Rutor.in. Не нужно использовать прокси, чтобы зайти на рутор, достаточно воспользоваться нашим ресурсом. Все новые фильмы, игры, сериалы, книги и музыка за 2013 и 2014 годы через торрент бесплатно. Скачивайте фильмы в хорошем качестве, игры для пк, xbox, playstation без регистрации. У нас вы найдете новые Зарубежные сериалы и Русские сериалы 2013, 2014, 2015 годов. Оставайтесь с нами, качайте любимые фильмы, игры, сериалы, книги и музыку.
cron