img image001 image001 image001 image001 image001 image001 image001 image001 image001 image001 image001 image001 image001 image001 image001

Planets Sun Sun Sun
Статистика раздачи
Автор: Снежана | Размер: 7.85 ГБ | Добавлен: 25 июл 2013
Раздают: 5    Качают: 4
Скачать торрент
Скачать торрент
Описание торрента

СообщениеДобавлено: 25 июл 2013 

#77

Название: Вселенная
Оригинальное название: The Universe
Год выпуска: 2008
Жанр: Документальный, научно-познавательный, исследование, природа, космос
Режиссер: Лаура Верклан, Тони Лонг, Колин Кэмпбелл, Дуглас Коэн, Эндрю Нок, Дэррил Рейр
В ролях: Нил Тайсон, Джефф Марси, Роб Рой Бритт, Мишель Тэллер, Алекс Филиппенко, Лаура Дэнли, Уильям Хартманн, Эйми Мейнзер, Мичио Каку, Нэйт МакКрейди, Кевин Бэйнс, Джошуа Барнс, д-р Кевин Р. Грейзер

Описание: В этом сериале с помощью современной компьютерной графики и, основываясь на передовых исследованиях в области космоса, создатели фильма смогли воссоздать то, что происходит на других планетах, в других галактиках, вообразить какие формы жизни могли бы развиться в других атмосферах. Вы сможете увидеть космические бедствия, параллельные вселенные, скорость света и узнать многое другое о тайнах космоса.



Страна: США, Flight 33 Productions
Продолжительность: 12 х ~ 00:45:00
Перевод: Авторский (одноголосый, закадровый) - Александр Дасевич
Субтитры: Нет

Качество: BDRip
Формат: AVI
Видео: XviD, ~ 1900 Кбит/с, 720x400
Аудио: AC3, 2 ch, 192 Кбит/с

Авторский одноголосый (текст читает Александр Дасевич)
Перевод и озвучивание осуществлены в рамках сервиса "Озвучивание". Спонсоры: levanevski, HPotter, LibrarianA, ork2010, gelom, Turko, Nefrite, norvk, alvane, Acoustic, burdyuk, Cheetah, XIOPS, khapev2, yarik1984, CtrlSoft, Trottor, Cheetah, DeTorquemada, Кириллка, Armless
01. Deep Space Disasters / Космические катастрофы
02. Параллельные вселенные / Parallel Universes
03. Скорость света / Light Speed
04. Секс в пространстве / Sex in Space
05. Чужеродные лица / Alien Faces
06. Смертельные кометы и метеоры / Deadly Comets and Meteors
07. Жизнь в космосе / Living In Space
08. Остановить армагеддон / Stopping Armageddon
09. Другая Земля / Another Earth
10. Странные вещи / Strangest Things
11. На краю космоса / Edge of Space
12. Космические феномены / Cosmic Phenomena
Формат : AVI
Формат/Информация : Audio Video Interleave
Размер файла : 668 Мбайт
Продолжительность : 44 м.
Общий поток : 2101 Кбит/сек
Программа кодирования : VirtualDubMod 1.5.10.3 | www.virtualdub-fr.org || (build 2550/release)
Библиотека кодирования : VirtualDubMod build 2550/release

Видео
Идентификатор : 0
Формат : MPEG-4 Visual
Профиль формата : Advanced Simple@L5
Параметр BVOP формата : 2
Параметр QPel формата : Нет
Параметр GMC формата : Без точки перехода
Параметр матрицы формата : Default (H.263)
Идентификатор кодека : XVID
Идентификатор кодека/Подсказка : XviD
Продолжительность : 44 м.
Битрейт : 1900 Кбит/сек
Ширина : 720 пикс.
Высота : 400 пикс.
Соотношение сторон : 16:9
Частота кадров : 23,976 кадр/сек
Цветовое пространство : YUV
Подвыборка цветности : 4:2:0
Битовая глубина : 8 бит
Тип развёртки : Прогрессивная
Метод сжатия : С потерями
Бит/(Пиксели*Кадры) : 0.275
Размер потока : 604 Мбайт (90%)
Библиотека кодирования : XviD 1.2.1 (UTC 2008-12-04)

Аудио
Идентификатор : 1
Формат : AC-3
Формат/Информация : Audio Coding 3
Расширение режима : CM (complete main)
Идентификатор кодека : 2000
Продолжительность : 44 м.
Вид битрейта : Постоянный
Битрейт : 192 Кбит/сек
Каналы : 2 канала
Расположение каналов : Front: L R
Частота : 48,0 КГц
Битовая глубина : 16 бит
Метод сжатия : С потерями
Размер потока : 61,1 Мбайт (9%)
Выравнивание : Разделение по промежуткам
Продолжительность промежутка : 42 мс. (1,00 видеокадр)
Время предзагрузки промежутка : 500 ms



Релиз от: skorpionN



   Похожие торренты   Торрент   Размер 
В этой теме нет новых непрочитанных сообщений. Вселенная / The Universe [S03] (2008) BDRip 720p от GYN | А

3 | 2

33.49 ГБ

В этой теме нет новых непрочитанных сообщений. Вселенная / The Universe [S03] (2008) BDRip 1080p | A

0 | 2

38.81 ГБ

В этой теме нет новых непрочитанных сообщений. Вселенная / The Universe [S03] (2008) BDRip 1080p | P1

35 | 23

34.61 ГБ

В этой теме нет новых непрочитанных сообщений. Вселенная / The Universe [S02] (2007-2008) BDRip 720p от GYN | А

5 | 4

50.09 ГБ

В этой теме нет новых непрочитанных сообщений. Вселенная / The Universe [S03] (2008) Blu-Ray 1080p | A

0 | 3

112.62 ГБ

В этой теме нет новых непрочитанных сообщений. Вселенная / The Universe [S01-03] (2007-2008) HDRip от R.G.RealMT | P1, P2, A

11 | 12

32.13 ГБ

В этой теме нет новых непрочитанных сообщений. Известная Вселенная: С космической скоростью / Known Universe: Speeding Through the Universe (2009) SATRip

0 | 17

551.62 МБ




Вы не можете начинать темы
Вы не можете отвечать на сообщения
Вы не можете редактировать свои сообщения
Вы не можете удалять свои сообщения
Вы не можете добавлять вложения

Перейти:  
Для Мосгорсуда, Роскомнадзора и рекламодателей: mosgorsud-torrent[собачка]yandex.ru
 Вход
ppkBB3cker v.2 © 2008-2014 @ PPK
[ Time : 0.078s | 14 Queries | GZIP : Off ]

Торрент трекер RUTOR.IN, Не можете зайти на rutor.org? Какой новый адрес рутор? Какое зеркало рутор? Не работает rutor.org и зеркала? Тогда наш торрент специально для вас. Rutor.in неофициальное зеркало rutor. В случае если у Вас заблокирован rutor или вдруг Вы не можете на него зайти, то Вы без труда сможете скачать бесплатно и без рекламы последние новинки кино, игр, сериалов и прочего у нас, на Rutor.in. Не нужно использовать прокси, чтобы зайти на рутор, достаточно воспользоваться нашим ресурсом. Все новые фильмы, игры, сериалы, книги и музыка за 2013 и 2014 годы через торрент бесплатно. Скачивайте фильмы в хорошем качестве, игры для пк, xbox, playstation без регистрации. У нас вы найдете новые Зарубежные сериалы и Русские сериалы 2013, 2014, 2015 годов. Оставайтесь с нами, качайте любимые фильмы, игры, сериалы, книги и музыку.