img image001 image001 image001 image001 image001 image001 image001 image001 image001 image001 image001 image001 image001 image001 image001

Planets Sun Sun Sun
Статистика раздачи
Автор: Снежана | Размер: 2.78 ГБ | Добавлен: 25 июл 2013
Раздают: 1    Качают: 1
Скачать торрент
Скачать торрент
Описание торрента

СообщениеДобавлено: 25 июл 2013 

#77

Название: Вселенная
Оригинальное название: The Universe
Год выпуска: 2011
Жанр: Документальный, научно-познавательный, исследование, природа, космос
Режиссер: Лаура Верклан, Тони Лонг, Колин Кэмпбелл, Дуглас Коэн, Эндрю Нок, Дэррил Рейр
В ролях: Нил Тайсон, Джефф Марси, Роб Рой Бритт, Мишель Тэллер, Алекс Филиппенко, Лаура Дэнли, Уильям Хартманн, Эйми Мейнзер, Мичио Каку, Нэйт МакКрейди, Кевин Бэйнс, Джошуа Барнс, д-р Кевин Р. Грейзер

Описание: В этом сериале с помощью современной компьютерной графики и, основываясь на передовых исследованиях в области космоса, создатели фильма смогли воссоздать то, что происходит на других планетах, в других галактиках, вообразить какие формы жизни могли бы развиться в других атмосферах. Вы сможете увидеть космические бедствия, параллельные вселенные, скорость света и узнать многое другое о тайнах космоса.



Страна: США, Flight 33 Productions
Продолжительность: ~ 00:45:00
Перевод: Профессиональный (двухголосый, закадровый) - студия "Омикрон"
Субтитры: Русские (форсированные), английские

Качество: BDRip 720p
Формат: МКV
Видео: MPEG-4 AVC, 5852 Кбит/с, 1280x720, 23.976 Кадр/с
Аудио Rus: DTS, 6 ch, 1509 Кбит/с
Аудио Eng: DTS, 6 ch, 1509 Кбит/с

Перевод двухголосый закадровый (студия "Омикрон", специально для HDClub)
01. Катастрофы, меняющие планеты / Catastrophes that Changed the Planets
Это ещё один "Апокалипсис сегодня" только на этот раз в масштабе солнечной системы. В этой серии мы увидим, как катаклизмы в различные эпохи создали, а затем изменили планеты и наше ближайшее окружение.
Общее
Уникальный идентификатор : 191689138212764201691860430031505546867 (0x9035FC31770446E793872E93C8835E73)
Полное имя : The.Universe.S06E01.Catastrophes.that.Changed.the.Planets.2011.BDRip.720p.mkv
Формат : Matroska
Версия формата : Version 4 / Version 2
Размер файла : 2,78 Гбайт
Продолжительность : 44 м.
Общий поток : 9050 Кбит/сек
Дата кодирования : UTC 2013-02-16 12:42:41
Программа кодирования : mkvmerge v6.0.0 ('Coming Up For Air') built on Jan 20 2013 09:52:00
Библиотека кодирования : libebml v1.3.0 + libmatroska v1.4.0

Видео
Идентификатор : 1
Формат : AVC
Формат/Информация : Advanced Video Codec
Профиль формата : High@L4.1
Параметр CABAC формата : Да
Параметр ReFrames формата : 9 кадров
Идентификатор кодека : V_MPEG4/ISO/AVC
Продолжительность : 44 м.
Битрейт : 5852 Кбит/сек
Ширина : 1280 пикселей
Высота : 720 пикселей
Соотношение сторон : 16:9
Режим частоты кадров : Постоянный
Частота кадров : 23,976 кадра/сек
Цветовое пространство : YUV
Субдискретизация насыщенности : 4:2:0
Битовая глубина : 8 бит
Тип развёртки : Прогрессивная
Бит/(Пиксели*Кадры) : 0.265
Размер потока : 1,80 Гбайт (65%)
Библиотека кодирования : x264 core 129 r2245 bc13772
Настройки программы : cabac=1 / ref=9 / deblock=1:-3:-3 / analyse=0x3:0x133 / me=umh / subme=9 / psy=1 / psy_rd=1.00:0.10 / mixed_ref=1 / me_range=32 / chroma_me=1 / trellis=2 / 8x8dct=1 / cqm=0 / deadzone=21,11 / fast_pskip=0 / chroma_qp_offset=-3 / threads=16 / lookahead_threads=2 / sliced_threads=0 / nr=0 / decimate=1 / interlaced=0 / bluray_compat=0 / constrained_intra=0 / bframes=8 / b_pyramid=2 / b_adapt=2 / b_bias=0 / direct=3 / weightb=1 / open_gop=0 / weightp=2 / keyint=230 / keyint_min=23 / scenecut=40 / intra_refresh=0 / rc=cqp / mbtree=0 / qp=18 / ip_ratio=1.40 / pb_ratio=1.30 / aq=0
Язык : English
Default : Да
Forced : Нет

Аудио #1
Идентификатор : 2
Формат : DTS
Формат/Информация : Digital Theater Systems
Режим : 16
Параметр Endianness формата : Big
Идентификатор кодека : A_DTS
Продолжительность : 44 м.
Вид битрейта : Постоянный
Битрейт : 1509 Кбит/сек
Каналы : 6 каналов
Расположение каналов : Front: L C R, Side: L R, LFE
Частота : 48,0 КГц
Битовая глубина : 24 бит
Метод сжатия : С потерями
Размер потока : 475 Мбайт (17%)
Язык : Russian
Default : Да
Forced : Нет

Аудио #2
Идентификатор : 3
Формат : DTS
Формат/Информация : Digital Theater Systems
Режим : 16
Параметр Endianness формата : Big
Идентификатор кодека : A_DTS
Продолжительность : 44 м.
Вид битрейта : Постоянный
Битрейт : 1509 Кбит/сек
Каналы : 6 каналов
Расположение каналов : Front: L C R, Side: L R, LFE
Частота : 48,0 КГц
Битовая глубина : 24 бит
Метод сжатия : С потерями
Размер потока : 475 Мбайт (17%)
Язык : English
Default : Нет
Forced : Нет

Текст #1
Идентификатор : 4
Формат : PGS
Режим смешивания : zlib
Идентификатор кодека : S_HDMV/PGS
Идентификатор кодека/Информация : The same subtitle format used on BDs/HD-DVDs
Язык : Russian
Default : Да
Forced : Да

Текст #2
Идентификатор : 5
Формат : PGS
Режим смешивания : zlib
Идентификатор кодека : S_HDMV/PGS
Идентификатор кодека/Информация : The same subtitle format used on BDs/HD-DVDs
Язык : English
Default : Нет
Forced : Нет



   Похожие торренты   Торрент   Размер 
В этой теме нет новых непрочитанных сообщений. Вселенная / The Universe [06х01] (2011) BDRip | P2

0 | 1

692.79 МБ

В этой теме нет новых непрочитанных сообщений. Вселенная / The Universe [06х01] (2011) BDRip 1080p | P2

0 | 1

5.18 ГБ

В этой теме нет новых непрочитанных сообщений. Вселенная / The Universe [06х01] (2011) Blu-Ray Remux 1080p | P2

0 | 2

8.55 ГБ

В этой теме нет новых непрочитанных сообщений. Известная Вселенная / Known Universe [S03] (2011) HDTVRip 720p

19 | 6

9.34 ГБ

В этой теме нет новых непрочитанных сообщений. Известная Вселенная / Known Universe [S02] (2011) HDTVRip 720p

17 | 9

6.63 ГБ

В этой теме нет новых непрочитанных сообщений. Звездные Врата: Вселенная / Stargate Universe [S02] (2010-2011) WEB-DL 720p

28 | 5

29.58 ГБ

В этой теме нет новых непрочитанных сообщений. Вселенная / The Universe [S01] (2007) BDRip 720p от GYN

1 | 4

41.74 ГБ




Вы не можете начинать темы
Вы не можете отвечать на сообщения
Вы не можете редактировать свои сообщения
Вы не можете удалять свои сообщения
Вы не можете добавлять вложения

Перейти:  
Для Мосгорсуда, Роскомнадзора и рекламодателей: mosgorsud-torrent[собачка]yandex.ru
 Вход
ppkBB3cker v.2 © 2008-2014 @ PPK
[ Time : 0.042s | 15 Queries | GZIP : Off ]

Торрент трекер RUTOR.IN, Не можете зайти на rutor.org? Какой новый адрес рутор? Какое зеркало рутор? Не работает rutor.org и зеркала? Тогда наш торрент специально для вас. Rutor.in неофициальное зеркало rutor. В случае если у Вас заблокирован rutor или вдруг Вы не можете на него зайти, то Вы без труда сможете скачать бесплатно и без рекламы последние новинки кино, игр, сериалов и прочего у нас, на Rutor.in. Не нужно использовать прокси, чтобы зайти на рутор, достаточно воспользоваться нашим ресурсом. Все новые фильмы, игры, сериалы, книги и музыка за 2013 и 2014 годы через торрент бесплатно. Скачивайте фильмы в хорошем качестве, игры для пк, xbox, playstation без регистрации. У нас вы найдете новые Зарубежные сериалы и Русские сериалы 2013, 2014, 2015 годов. Оставайтесь с нами, качайте любимые фильмы, игры, сериалы, книги и музыку.