img image001 image001 image001 image001 image001 image001 image001 image001 image001 image001 image001 image001 image001 image001 image001

Planets Sun Sun Sun
Статистика раздачи
Автор: Снежана | Размер: 692.79 МБ | Добавлен: 25 июл 2013
Раздают: 0    Качают: 1
Скачать торрент
Скачать торрент
Описание торрента

СообщениеДобавлено: 25 июл 2013 

#77

Название: Вселенная
Оригинальное название: The Universe
Год выпуска: 2011
Жанр: Документальный, научно-познавательный, исследование, природа, космос
Режиссер: Лаура Верклан, Тони Лонг, Колин Кэмпбелл, Дуглас Коэн, Эндрю Нок, Дэррил Рейр
В ролях: Нил Тайсон, Джефф Марси, Роб Рой Бритт, Мишель Тэллер, Алекс Филиппенко, Лаура Дэнли, Уильям Хартманн, Эйми Мейнзер, Мичио Каку, Нэйт МакКрейди, Кевин Бэйнс, Джошуа Барнс, д-р Кевин Р. Грейзер

Описание: В этом сериале с помощью современной компьютерной графики и, основываясь на передовых исследованиях в области космоса, создатели фильма смогли воссоздать то, что происходит на других планетах, в других галактиках, вообразить какие формы жизни могли бы развиться в других атмосферах. Вы сможете увидеть космические бедствия, параллельные вселенные, скорость света и узнать многое другое о тайнах космоса.



Страна: США, Flight 33 Productions
Продолжительность: ~ 00:45:00
Перевод: Профессиональный (двухголосый, закадровый) - студия "Омикрон"
Субтитры: Нет

Качество: BDRip
Формат: AVI
Видео: XviD, ~ 1300 Кбит/с, 720x400
Аудио Rus: AC3, 6 ch, 448 Кбит/с
Аудио Eng: AC3, 6 ch, 448 Кбит/с

Перевод двухголосый закадровый (студия "Омикрон", специально для HDClub)
01. Катастрофы, меняющие планеты / Catastrophes that Changed the Planets
Это ещё один "Апокалипсис сегодня" только на этот раз в масштабе солнечной системы. В этой серии мы увидим, как катаклизмы в различные эпохи создали, а затем изменили планеты и наше ближайшее окружение.
Общее
Полное имя : The.Universe.S06E01.Catastrophes.that.Changed.the.Planets.2011.BDRip.avi
Формат : AVI
Формат/Информация : Audio Video Interleave
Размер файла : 693 Мбайт
Продолжительность : 44 м.
Общий поток : 2199 Кбит/сек

Видео
Идентификатор : 0
Формат : MPEG-4 Visual
Профиль формата : Advanced Simple@L5
Параметр BVOP формата : 2
Параметр QPel формата : Да
Параметр GMC формата : Без точки перехода
Параметр матрицы формата : Default (H.263)
Идентификатор кодека : XVID
Идентификатор кодека/Подсказка : XviD
Продолжительность : 44 м.
Битрейт : 1293 Кбит/сек
Ширина : 720 пикселей
Высота : 400 пикселей
Соотношение сторон : 16:9
Частота кадров : 23,976 кадра/сек
Цветовое пространство : YUV
Субдискретизация насыщенности : 4:2:0
Битовая глубина : 8 бит
Тип развёртки : Прогрессивная
Метод сжатия : С потерями
Бит/(Пиксели*Кадры) : 0.187
Размер потока : 407 Мбайт (59%)
Библиотека кодирования : XviD 1.2.1 (UTC 2008-12-04)

Аудио #1
Идентификатор : 1
Формат : AC-3
Формат/Информация : Audio Coding 3
Расширение режима : CM (complete main)
Параметр Endianness формата : Big
Идентификатор кодека : 2000
Продолжительность : 44 м.
Вид битрейта : Постоянный
Битрейт : 448 Кбит/сек
Каналы : 6 каналов
Расположение каналов : Front: L C R, Side: L R, LFE
Частота : 48,0 КГц
Битовая глубина : 16 бит
Метод сжатия : С потерями
Размер потока : 141 Мбайт (20%)
Выравнивание : Соединение по промежуткам
Продолжительность промежутка : 64 мс. (1,53 видеокадра)
Время предзагрузки промежутка : 192 мс.
Заголовок : 1_4_audio

Аудио #2
Идентификатор : 2
Формат : AC-3
Формат/Информация : Audio Coding 3
Расширение режима : CM (complete main)
Параметр Endianness формата : Big
Идентификатор кодека : 2000
Продолжительность : 44 м.
Вид битрейта : Постоянный
Битрейт : 448 Кбит/сек
Каналы : 6 каналов
Расположение каналов : Front: L C R, Side: L R, LFE
Частота : 48,0 КГц
Битовая глубина : 16 бит
Метод сжатия : С потерями
Размер потока : 141 Мбайт (20%)
Выравнивание : Соединение по промежуткам
Продолжительность промежутка : 64 мс. (1,53 видеокадра)
Время предзагрузки промежутка : 192 мс.
Заголовок : 1_3_audio





   Похожие торренты   Торрент   Размер 
В этой теме нет новых непрочитанных сообщений. Вселенная / The Universe [06х01] (2011) BDRip 1080p | P2

0 | 1

5.18 ГБ

В этой теме нет новых непрочитанных сообщений. Вселенная / The Universe [06х01] (2011) BDRip 720p | P2

1 | 1

2.78 ГБ

В этой теме нет новых непрочитанных сообщений. Вселенная / The Universe [06х01] (2011) Blu-Ray Remux 1080p | P2

0 | 2

8.55 ГБ

В этой теме нет новых непрочитанных сообщений. Вселенная (Сезон 6) / The Universe (Season 6) (2011) BDRip 1080p от Ash61 | Лицензия

136 | 51

32.52 ГБ

В этой теме нет новых непрочитанных сообщений. Вселенная: НЛО. Внеземные технологии / The Universe: UFO: The Real Deal (2011) BDRip от GeneralFilm

316 | 10

698.54 МБ

В этой теме нет новых непрочитанных сообщений. Вселенная (Сезон 6. Эпизоды 4 - 7) / The Universe (S06, E04 - E07) (2011) BDRip 1080p от Ash61 | 3D-Video | halfOU

53 | 101

21.02 ГБ

В этой теме нет новых непрочитанных сообщений. Вселенная (Сезон 6. Эпизоды 1 - 3) / The Universe (S06, E01 - E03) (2011) BDRip 1080p от Ash61 | 3D-Video | halfOU | Лицензия

98 | 42

14.43 ГБ




Вы не можете начинать темы
Вы не можете отвечать на сообщения
Вы не можете редактировать свои сообщения
Вы не можете удалять свои сообщения
Вы не можете добавлять вложения

Перейти:  
Для Мосгорсуда, Роскомнадзора и рекламодателей: mosgorsud-torrent[собачка]yandex.ru
 Вход
ppkBB3cker v.2 © 2008-2014 @ PPK
[ Time : 0.051s | 15 Queries | GZIP : Off ]

Торрент трекер RUTOR.IN, Не можете зайти на rutor.org? Какой новый адрес рутор? Какое зеркало рутор? Не работает rutor.org и зеркала? Тогда наш торрент специально для вас. Rutor.in неофициальное зеркало rutor. В случае если у Вас заблокирован rutor или вдруг Вы не можете на него зайти, то Вы без труда сможете скачать бесплатно и без рекламы последние новинки кино, игр, сериалов и прочего у нас, на Rutor.in. Не нужно использовать прокси, чтобы зайти на рутор, достаточно воспользоваться нашим ресурсом. Все новые фильмы, игры, сериалы, книги и музыка за 2013 и 2014 годы через торрент бесплатно. Скачивайте фильмы в хорошем качестве, игры для пк, xbox, playstation без регистрации. У нас вы найдете новые Зарубежные сериалы и Русские сериалы 2013, 2014, 2015 годов. Оставайтесь с нами, качайте любимые фильмы, игры, сериалы, книги и музыку.
cron