img image001 image001 image001 image001 image001 image001 image001 image001 image001 image001 image001 image001 image001 image001 image001

Planets Sun Sun Sun
Статистика раздачи
Автор: Снежана | Размер: 741.55 МБ | Добавлен: 24 июл 2013
Раздают: 2    Качают: 4
Скачать торрент
Скачать торрент
Описание торрента

СообщениеДобавлено: 24 июл 2013 

#77

Название: Пума!
Оригинальное название: Puma!
Год выпуска: 2012
Страна: США
Жанр: документальный
Продолжительность: 00:44:59
Перевод: Профессиональный (дублированный) Денис Некрасов / АРК·ТВ
Русские субтитры: нет

Режиссер: Уве Мюллер / Uwe Muller

Описание: Этот фильм рассказывает историю одной из самых скромных кошек в мире. Мы наблюдаем за самкой пумы и за ее тремя малышами, за тем, как они учатся у своей мамы, как они подкрадываются к гуанако и как они делаются "невидимыми", когда жертва приближается или когда мама уходит на охоту. Мать-пума должна быть хорошим охотником. Но успех ее охоты необходим не только ее малышам. Кондоры, Южноамериканские серые лисы и другие животные – их выживание также зависит от хорошей охоты пумы…

Качество: HDTVRip
Формат: AVI
Видео кодек: XviD
Аудио кодек: MP2
Видео: 720x400 (16:9), 2 103 Kbps, 25 fps, 0.292 Bits/(Pixel*Frame)
Аудио: 192 Kbps, 48.0 KHz, 2 channels



General
Complete name : D:Puma!.2012.HDTVRip.XviD.mp2.742mb.YTN.avi
Format : AVI
Format/Info : Audio Video Interleave
File size : 742 MiB
Duration : 44mn 59s
Overall bit rate : 2 304 Kbps
Writing application : VirtualDubMod 1.5.10.2 (build 2540/release)
Writing library : VirtualDubMod build 2540/release

Video
ID : 0
Format : MPEG-4 Visual
Format profile : Advanced Simple@L5
Format settings, BVOP : 1
Format settings, QPel : No
Format settings, GMC : No warppoints
Format settings, Matrix : Custom
Codec ID : XVID
Codec ID/Hint : XviD
Duration : 44mn 59s
Bit rate : 2 103 Kbps
Width : 720 pixels
Height : 400 pixels
Display aspect ratio : 16:9
Frame rate : 25.000 fps
Color space : YUV
Chroma subsampling : 4:2:0
Bit depth : 8 bits
Scan type : Progressive
Compression mode : Lossy
Bits/(Pixel*Frame) : 0.292
Stream size : 677 MiB (91%)
Writing library : XviD 65

Audio
ID : 1
Format : MPEG Audio
Format version : Version 1
Format profile : Layer 2
Codec ID : 50
Duration : 44mn 59s
Bit rate mode : Constant
Bit rate : 192 Kbps
Channel(s) : 2 channels
Sampling rate : 48.0 KHz
Compression mode : Lossy
Stream size : 61.8 MiB (8%)
Alignment : Aligned on interleaves
Interleave, duration : 40 ms (1.00 video frame)
Interleave, preload duration : 504 ms



Раздача от:



   Похожие торренты   Торрент   Размер 
В этой теме нет новых непрочитанных сообщений. Дуэль братьев. История Adidas и Puma / Duell der Brüder - Die Geschichte von Adidas und Puma (2016) HDTVRip | ViruseProject

1518 | 41

1.46 ГБ

В этой теме нет новых непрочитанных сообщений. Дуэль братьев. История Adidas и Puma / Duell der Brüder - Die Geschichte von Adidas und Puma (2016) HDTVRip 720p| ViruseProject

512 | 15

3.55 ГБ

В этой теме нет новых непрочитанных сообщений. VA - Defected Presents: Chocolate Puma In The House (2012) MP3

0 | 1

803.92 МБ

В этой теме нет новых непрочитанных сообщений. Nat Geo Wild: Американская пума / American Cougar (2011) HDTVRip от Leo.pard | P1

0 | 2

699.47 МБ

В этой теме нет новых непрочитанных сообщений. Nat Geo Wild: Американская пума / American Cougar (2011) HDTVRip-AVC от Leo.pard | P1

0 | 2

700.62 МБ

В этой теме нет новых непрочитанных сообщений. Nat Geo Wild: Пума против волка / Cougar vs Wolf (2013) HDTVRip-AVC от Leo.pard | P1

77 | 12

700.33 МБ

В этой теме нет новых непрочитанных сообщений. Nat Geo Wild: Пума против волка / Cougar vs Wolf (2013) HDTVRip от Leo.pard | P1

127 | 28

700.24 МБ




Вы не можете начинать темы
Вы не можете отвечать на сообщения
Вы не можете редактировать свои сообщения
Вы не можете удалять свои сообщения
Вы не можете добавлять вложения

Перейти:  
Для Мосгорсуда, Роскомнадзора и рекламодателей: mosgorsud-torrent[собачка]yandex.ru
 Вход
ppkBB3cker v.2 © 2008-2014 @ PPK
[ Time : 0.038s | 15 Queries | GZIP : Off ]

Торрент трекер RUTOR.IN, Не можете зайти на rutor.org? Какой новый адрес рутор? Какое зеркало рутор? Не работает rutor.org и зеркала? Тогда наш торрент специально для вас. Rutor.in неофициальное зеркало rutor. В случае если у Вас заблокирован rutor или вдруг Вы не можете на него зайти, то Вы без труда сможете скачать бесплатно и без рекламы последние новинки кино, игр, сериалов и прочего у нас, на Rutor.in. Не нужно использовать прокси, чтобы зайти на рутор, достаточно воспользоваться нашим ресурсом. Все новые фильмы, игры, сериалы, книги и музыка за 2013 и 2014 годы через торрент бесплатно. Скачивайте фильмы в хорошем качестве, игры для пк, xbox, playstation без регистрации. У нас вы найдете новые Зарубежные сериалы и Русские сериалы 2013, 2014, 2015 годов. Оставайтесь с нами, качайте любимые фильмы, игры, сериалы, книги и музыку.
cron