img image001 image001 image001 image001 image001 image001 image001 image001 image001 image001 image001 image001 image001 image001 image001

Planets Sun Sun Sun
Статистика раздачи
Автор: Снежана | Размер: 741.51 МБ | Добавлен: 24 июл 2013
Раздают: 6    Качают: 3
Скачать торрент
Скачать торрент
Описание торрента

СообщениеДобавлено: 24 июл 2013 

#77

Год выпуска: 2012
Страна: США
Жанр: документальный
Продолжительность: 00:44:59
Перевод: Профессиональный (дублированный) Александр Гаврилин / АРК·ТВ
Русские субтитры: нет

Режиссер: Беверли Жубер / Beverly Joubert, Дерек Жубер / Dereck Joubert

Описание: Этот фильм рассказывает историю о взрослении молодого самца леопарда, который завоевывает сердца зрителей своими неуклюжими, подростковыми выходками, его неумением делать то, что должны уметь большинство леопардов, как например, лазание по деревьям и удержание на нем своей добычи. Умиление вызывает и его сильная связь с матерью. Мы начинаем следовать за этим леопардом, когда ему еще несколько недель от роду, но когда он уже должен отойти от своей матери и войти в широкий мир, живущий по своим законам. Этот леопард имеет ярко выраженную индивидуальность. Съемки проходят в Ботсване, в Африке.

Раздача от:

Качество: HDTVRip
Формат: AVI
Видео кодек: XviD
Аудио кодек: MP2
Видео: 720x400 (16:9), 2 103 Kbps, 23.976 fps, 0.305 Bits/(Pixel*Frame)
Аудио: 192 Kbps, 48 KHz, 2 channels



General
Complete name : D:Neobychnyj.leopard.2012.HDTVRip.XviD.mp2.742mb.YTN.avi
Format : AVI
Format/Info : Audio Video Interleave
File size : 742 MiB
Duration : 44mn 59s
Overall bit rate : 2 304 Kbps
Writing application : VirtualDubMod 1.5.10.2 (build 2540/release)
Writing library : VirtualDubMod build 2540/release

Video
ID : 0
Format : MPEG-4 Visual
Format profile : Advanced Simple@L5
Format settings, BVOP : 1
Format settings, QPel : No
Format settings, GMC : No warppoints
Format settings, Matrix : Custom
Codec ID : XVID
Codec ID/Hint : XviD
Duration : 44mn 59s
Bit rate : 2 103 Kbps
Width : 720 pixels
Height : 400 pixels
Display aspect ratio : 16:9
Frame rate : 23.976 fps
Color space : YUV
Chroma subsampling : 4:2:0
Bit depth : 8 bits
Scan type : Progressive
Compression mode : Lossy
Bits/(Pixel*Frame) : 0.305
Stream size : 677 MiB (91%)
Writing library : XviD 65

Audio
ID : 1
Format : MPEG Audio
Format version : Version 1
Format profile : Layer 2
Codec ID : 50
Duration : 44mn 59s
Bit rate mode : Constant
Bit rate : 192 Kbps
Channel(s) : 2 channels
Sampling rate : 48.0 KHz
Compression mode : Lossy
Stream size : 61.8 MiB (8%)
Alignment : Aligned on interleaves
Interleave, duration : 42 ms (1.00 video frame)
Interleave, preload duration : 504 ms




   Похожие торренты   Торрент   Размер 
В этой теме нет новых непрочитанных сообщений. National Geographic: Необычный леопард / The Unlikely Leopard (2012) HDTVRip от DeathN2

6 | 2

707.2 МБ

В этой теме нет новых непрочитанных сообщений. Коммандо-леопард / Диверсионный отряд Леопард / Kommando Leopard (1985) BDRip-AVC от MediaClub | A

118 | 75

2.99 ГБ

В этой теме нет новых непрочитанных сообщений. Коммандо-леопард / Диверсионный отряд Леопард / Kommando Leopard (1985) BDRip 720p от MediaClub | A

28 | 13

5.75 ГБ

В этой теме нет новых непрочитанных сообщений. Коммандо-леопард / Диверсионный отряд Леопард / Kommando Leopard (1985) Blu-ray Remux 1080p от MediaClub | A

15 | 25

20.98 ГБ

В этой теме нет новых непрочитанных сообщений. Леопард – родовое дерево / Leopard: Family Trees (2003) HDTVRip от AndrewWhite

0 | 2

447.75 МБ

В этой теме нет новых непрочитанных сообщений. Леопард / The Leopard / Il gattopardo (1963) BDRip от Shevon

2 | 2

2.91 ГБ

В этой теме нет новых непрочитанных сообщений. Леопард / IL gattopardo / The Leopard (1963) BDRip-AVC от olegek70

11 | 3

4.35 ГБ




Вы не можете начинать темы
Вы не можете отвечать на сообщения
Вы не можете редактировать свои сообщения
Вы не можете удалять свои сообщения
Вы не можете добавлять вложения

Перейти:  
Для Мосгорсуда, Роскомнадзора и рекламодателей: mosgorsud-torrent[собачка]yandex.ru
 Вход
ppkBB3cker v.2 © 2008-2014 @ PPK
[ Time : 0.036s | 15 Queries | GZIP : Off ]

Торрент трекер RUTOR.IN, Не можете зайти на rutor.org? Какой новый адрес рутор? Какое зеркало рутор? Не работает rutor.org и зеркала? Тогда наш торрент специально для вас. Rutor.in неофициальное зеркало rutor. В случае если у Вас заблокирован rutor или вдруг Вы не можете на него зайти, то Вы без труда сможете скачать бесплатно и без рекламы последние новинки кино, игр, сериалов и прочего у нас, на Rutor.in. Не нужно использовать прокси, чтобы зайти на рутор, достаточно воспользоваться нашим ресурсом. Все новые фильмы, игры, сериалы, книги и музыка за 2013 и 2014 годы через торрент бесплатно. Скачивайте фильмы в хорошем качестве, игры для пк, xbox, playstation без регистрации. У нас вы найдете новые Зарубежные сериалы и Русские сериалы 2013, 2014, 2015 годов. Оставайтесь с нами, качайте любимые фильмы, игры, сериалы, книги и музыку.
cron