img image001 image001 image001 image001 image001 image001 image001 image001 image001 image001 image001 image001 image001 image001 image001

Planets Sun Sun Sun
Статистика раздачи
Автор: Снежана | Размер: 774.77 МБ | Добавлен: 25 июл 2013
Раздают: 20    Качают: 2
Скачать торрент
Скачать торрент
Описание торрента

СообщениеДобавлено: 25 июл 2013 

#77

Информация о фильме
Название: Обратная сторона прогресса
Оригинальное название: Surviving Progress
Год выхода: 2011
Жанр: документальный, познавательный
Режиссер: Мэтью Рой, Гарольд Крукс / Mathieu Roy, Harold Crooks
О фильме:
Развитие человечества часто измеряется скоростью прогресса. Но что, если это развитие фактически ведет нас вниз к краху? Рональд Райт, чей бестселлер, "Краткая история прогресса" вдохновил на создание фильма, показывающего, как прошлые цивилизации были разрушены "ловушками продвижения" - современные технологии и системы взглядов, которые служат насущным потребностям, но подрывают будущее. Поскольку спрос на ресурсы в мире возрастает, а финансовые элиты банкротят нации, то как наша глобально переплетенная цивилизация может избежать заключительной, катастрофической ловушки прогресса?
Страна: Канада
Продолжительность: 01:26:34
Перевод: Профессиональный (одноголосый)

Формат : DivX
Формат/Информация : Hack of AVI
Размер файла : 775 Мбайт
Продолжительность : 1 ч. 26 м.
Общий поток : 1251 Кбит/сек

Видео
Идентификатор : 0
Формат : MPEG-4 Visual
Параметр BVOP формата : Нет
Параметр QPel формата : Нет
Параметр GMC формата : Без точки перехода
Параметр матрицы формата : Default (H.263)
Идентификатор кодека : DX50
Идентификатор кодека/Подсказка : DivX 5
Продолжительность : 1 ч. 26 м.
Битрейт : 1050 Кбит/сек
Ширина : 720 пикселей
Высота : 540 пикселей
Соотношение сторон : 4:3
Частота кадров : 25,000 кадров/сек
Цветовое пространство : YUV
Субдискретизация насыщенности : 4:2:0
Битовая глубина : 8 бит
Тип развёртки : Прогрессивная
Метод сжатия : С потерями
Бит/(Пиксели*Кадры) : 0.108
Размер потока : 650 Мбайт (84%)
Заголовок : Video
Библиотека кодирования : DivX 6.6.1.4

Аудио
Идентификатор : 1
Формат : MPEG Audio
Версия формата : Version 1
Профиль формата : Layer 3
Режим : Joint stereo
Идентификатор кодека : 55
Идентификатор кодека/Подсказка : MP3
Продолжительность : 1 ч. 26 м.
Вид битрейта : Постоянный
Битрейт : 192 Кбит/сек
Каналы : 2 канала
Частота : 48,0 КГц
Метод сжатия : С потерями
Размер потока : 119 Мбайт (15%)
Выравнивание : Разделение по промежуткам
Продолжительность промежутка : 40 мс. (1,00 видеокадр)
Время предзагрузки промежутка : 500 мс.
Заголовок : Audio
Библиотека кодирования : LAME3.96



Файл
Кодек: XviD
Качество: TVRip
Видео: 720x540, 25 fps, 1050 kbps, 0.108 bit/pixel
Звук: MP3, 2 ch, 48,0 КГц, 192 кб/с



Раздача от:



   Похожие торренты   Торрент   Размер 
В этой теме нет новых непрочитанных сообщений. Обратная сторона прогресса / Surviving Progress (2011) HDTVRip 1080p MediaClub

6 | 2

5.37 ГБ

В этой теме нет новых непрочитанных сообщений. Тайны Века: Обратная сторона Луны. Фальсификация полета американцев (2004) TVRip от tenow

3 | 3

350.33 МБ

В этой теме нет новых непрочитанных сообщений. Обратная сторона сексуальной революции / Зворотня сторона сексуальної революції (2010) DVDRip

3 | 2

526.33 МБ

В этой теме нет новых непрочитанных сообщений. Оксана Панкеева - Обратная сторона пути (2011) МР3

8 | 2

974.42 МБ

В этой теме нет новых непрочитанных сообщений. Сидни Шелдон - Обратная сторона успеха (2006) (2011) МР3

10 | 2

415.68 МБ

В этой теме нет новых непрочитанных сообщений. Обратная сторона (2009) DVDRip

16 | 2

691.56 МБ

В этой теме нет новых непрочитанных сообщений. Обратная сторона (2009) DVDRip by GENADIY

12 | 2

1.05 ГБ




Вы не можете начинать темы
Вы не можете отвечать на сообщения
Вы не можете редактировать свои сообщения
Вы не можете удалять свои сообщения
Вы не можете добавлять вложения

Перейти:  
Для Мосгорсуда, Роскомнадзора и рекламодателей: mosgorsud-torrent[собачка]yandex.ru
 Вход
ppkBB3cker v.2 © 2008-2014 @ PPK
[ Time : 0.041s | 14 Queries | GZIP : Off ]

Торрент трекер RUTOR.IN, Не можете зайти на rutor.org? Какой новый адрес рутор? Какое зеркало рутор? Не работает rutor.org и зеркала? Тогда наш торрент специально для вас. Rutor.in неофициальное зеркало rutor. В случае если у Вас заблокирован rutor или вдруг Вы не можете на него зайти, то Вы без труда сможете скачать бесплатно и без рекламы последние новинки кино, игр, сериалов и прочего у нас, на Rutor.in. Не нужно использовать прокси, чтобы зайти на рутор, достаточно воспользоваться нашим ресурсом. Все новые фильмы, игры, сериалы, книги и музыка за 2013 и 2014 годы через торрент бесплатно. Скачивайте фильмы в хорошем качестве, игры для пк, xbox, playstation без регистрации. У нас вы найдете новые Зарубежные сериалы и Русские сериалы 2013, 2014, 2015 годов. Оставайтесь с нами, качайте любимые фильмы, игры, сериалы, книги и музыку.