img image001 image001 image001 image001 image001 image001 image001 image001 image001 image001 image001 image001 image001 image001 image001

Planets Sun Sun Sun
Статистика раздачи
Автор: Снежана | Размер: 5.05 ГБ | Добавлен: 25 июл 2013
Раздают: 18    Качают: 6
Скачать торрент
Скачать торрент
Описание торрента

СообщениеДобавлено: 25 июл 2013 

#77
Год выпуска: 2009
Страна: Германия, США
Жанр: Документальный
Продолжительность: 7 х ~00:44
Перевод: Профессиональный одноголосый (Владимир Курдов)


Режиссер: Тобиас Менле / Ivo Nörenberg


Описание:
Совершите уникальное путешествие в самые отдаленные и неизведанные уголки России, поражающие богатством дикой природы, где можно побывать в огнедышащих кратерах вулканов и в ледовых пустынях, встретить белого медведя и амурского тигра.


Простираясь на 11 часовых поясов и расположившись на территории двух континентов, от центра Европы до Тихого океана, эта огромная страна поражает своим размахом и нетронутыми природными богатствами, которые в их первозданной красоте таят необъятные Российские просторы, раскинувшиеся вдали от шумных и тесных мегаполисов — Москвы и Санкт-Петербурга. Получив уникальную возможность впервые показать Дикую природу России во всем ее многообразии, мы совершим кинопутешествие с востока на запад, через горы, пустыни, вулканы, озера, и арктические льды. Наш удивительный шести серийный документальный фильм, снятый с использованием самой современной кинематографической техники, ярко и красочно расскажет об уникальных природных богатствах и заповедниках этой огромной страны.





Серия 1. Камчатка / Kamchatka:
Земля огнедышащих вулканов и ледников, страна льда и пламени. Вулканический полуостров Камчатка расположен на дальнем востоке России. Из-за частых извержений вулканов и оползней рельеф местности постоянно меняется. Но, несмотря на то, что далекий Камчатский край считается опасным, он необыкновенно богат и плодороден. Исследуя богатства этой волшебной земли, фильм не пропускает ничего: в кадре - то парящие в небе беркуты, то целое семейство рыжей лисицы, а то и хозяева здешних мест - бурые медведи, с удовольствием принимающие ванны в естественных горячих источниках.

Качество: HDRip
Формат:AVI
Видео кодек: XviD
Аудио кодек: MP3
Видео: 16:9, 2115 Кбит/сек, 720x400, 25,000 кадров/сек
Аудио: MP3, 2 канала, 192 Кбит/сек, 48,0 КГц



Общее
Полное имя : J:Дикая природа России1. Камчатка.avi
Формат : AVI
Формат/Информация : Audio Video Interleave
Размер файла : 739 Мбайт
Продолжительность : 44 м.
Общий поток : 2317 Кбит/сек
Программа кодирования : VirtualDubMod 1.5.10.3 | www.virtualdub-fr.org || (build 2550/release)
Библиотека кодирования : VirtualDubMod build 2550/release

Видео
Идентификатор : 0
Формат : MPEG-4 Visual
Профиль формата : Advanced Simple@L5
Параметр BVOP формата : 2
Параметр QPel формата : Нет
Параметр GMC формата : Без точки перехода
Параметр матрицы формата : Default (MPEG)
Идентификатор кодека : XVID
Идентификатор кодека/Подсказка : XviD
Продолжительность : 44 м.
Битрейт : 2115 Кбит/сек
Ширина : 720 пикселей
Высота : 400 пикселей
Соотношение сторон : 16:9
Частота кадров : 25,000 кадров/сек
Цветовое пространство : YUV
Субдискретизация насыщенности : 4:2:0
Битовая глубина : 8 бит
Тип развёртки : Прогрессивная
Метод сжатия : С потерями
Бит/(Пиксели*Кадры) : 0.294
Размер потока : 675 Мбайт (91%)
Библиотека кодирования : XviD 1.2.1 (UTC 2008-12-04)

Аудио
Идентификатор : 1
Формат : MPEG Audio
Версия формата : Version 1
Профиль формата : Layer 3
Идентификатор кодека : 55
Идентификатор кодека/Подсказка : MP3
Продолжительность : 44 м.
Вид битрейта : Постоянный
Битрейт : 192 Кбит/сек
Каналы : 2 канала
Частота : 48,0 КГц
Метод сжатия : С потерями
Размер потока : 61,2 Мбайт (8%)
Выравнивание : Соединение по промежуткам
Продолжительность промежутка : 40 мс. (1,00 видеокадр)
Время предзагрузки промежутка : 504 мс.
Библиотека кодирования : LAME3.99r
Настройки программы : -m s -V 4 -q 2 -lowpass 18.6 -b 192


Серия 2. Таежный край (Приморье) / The Secret Forest (Primorye):
Здесь не редкость встретить висящих на деревьях черных азиатских медведей, бурундуков, снующих в поисках пищи, а также пятнистых ланей, грациозно спускающихся к воде, чтобы пополнить свой рацион бурыми водорослями. Само присутствие оленей и ланей привлекает сюда самого крупного хищника в этом краю - амурского тигра. Но и самой большой в мире дикой кошке тоже грозит опасность. Браконьерство и разорение мест обитания тигров в уссурийской тайге России в течение многих лет создали реальную угрозу исчезновения этого редкого животного.

Качество: HDRip
Формат:AVI
Видео кодек: XviD
Аудио кодек: MP3
Видео: 16:9, 2108 Кбит/сек, 720x400, 25,000 кадров/сек
Аудио: MP3, 2 канала, 192 Кбит/сек, 48,0 КГц



Общее
Полное имя : J:Дикая природа России2. Таежный край (Приморье).avi
Формат : AVI
Формат/Информация : Audio Video Interleave
Размер файла : 739 Мбайт
Продолжительность : 44 м.
Общий поток : 2310 Кбит/сек
Программа кодирования : VirtualDubMod 1.5.10.3 | www.virtualdub-fr.org || (build 2550/release)
Библиотека кодирования : VirtualDubMod build 2550/release

Видео
Идентификатор : 0
Формат : MPEG-4 Visual
Профиль формата : Advanced Simple@L5
Параметр BVOP формата : 2
Параметр QPel формата : Нет
Параметр GMC формата : Без точки перехода
Параметр матрицы формата : Default (MPEG)
Идентификатор кодека : XVID
Идентификатор кодека/Подсказка : XviD
Продолжительность : 44 м.
Битрейт : 2108 Кбит/сек
Ширина : 720 пикселей
Высота : 400 пикселей
Соотношение сторон : 16:9
Частота кадров : 25,000 кадров/сек
Цветовое пространство : YUV
Субдискретизация насыщенности : 4:2:0
Битовая глубина : 8 бит
Тип развёртки : Прогрессивная
Метод сжатия : С потерями
Бит/(Пиксели*Кадры) : 0.293
Размер потока : 674 Мбайт (91%)
Библиотека кодирования : XviD 1.2.1 (UTC 2008-12-04)

Аудио
Идентификатор : 1
Формат : MPEG Audio
Версия формата : Version 1
Профиль формата : Layer 3
Идентификатор кодека : 55
Идентификатор кодека/Подсказка : MP3
Продолжительность : 44 м.
Вид битрейта : Постоянный
Битрейт : 192 Кбит/сек
Каналы : 2 канала
Частота : 48,0 КГц
Метод сжатия : С потерями
Размер потока : 61,4 Мбайт (8%)
Выравнивание : Соединение по промежуткам
Продолжительность промежутка : 40 мс. (1,00 видеокадр)
Время предзагрузки промежутка : 504 мс.
Библиотека кодирования : LAME3.99r
Настройки программы : -m s -V 4 -q 2 -lowpass 18.6 -b 192


Серия 3. Сибирь / Siberia:
Уникальная природа Сибири - место обитания многих экзотических животных, от саламандр до верблюдов и мускусных оленей, славящихся своим запахом.

Качество: HDRip
Формат:AVI
Видео кодек: XviD
Аудио кодек: MP3
Видео: 16:9, 2113 Кбит/сек, 720x400, 25,000 кадров/сек
Аудио: MP3, 2 канала, 192 Кбит/сек, 48,0 КГц



Общее
Полное имя : J:Дикая природа России3. Cибирь.avi
Формат : AVI
Формат/Информация : Audio Video Interleave
Размер файла : 737 Мбайт
Продолжительность : 44 м.
Общий поток : 2314 Кбит/сек
Программа кодирования : VirtualDubMod 1.5.10.3 | www.virtualdub-fr.org || (build 2550/release)
Библиотека кодирования : VirtualDubMod build 2550/release

Видео
Идентификатор : 0
Формат : MPEG-4 Visual
Профиль формата : Advanced Simple@L5
Параметр BVOP формата : 2
Параметр QPel формата : Нет
Параметр GMC формата : Без точки перехода
Параметр матрицы формата : Default (MPEG)
Идентификатор кодека : XVID
Идентификатор кодека/Подсказка : XviD
Продолжительность : 44 м.
Битрейт : 2113 Кбит/сек
Ширина : 720 пикселей
Высота : 400 пикселей
Соотношение сторон : 16:9
Частота кадров : 25,000 кадров/сек
Цветовое пространство : YUV
Субдискретизация насыщенности : 4:2:0
Битовая глубина : 8 бит
Тип развёртки : Прогрессивная
Метод сжатия : С потерями
Бит/(Пиксели*Кадры) : 0.293
Размер потока : 673 Мбайт (91%)
Библиотека кодирования : XviD 1.2.1 (UTC 2008-12-04)

Аудио
Идентификатор : 1
Формат : MPEG Audio
Версия формата : Version 1
Профиль формата : Layer 3
Идентификатор кодека : 55
Идентификатор кодека/Подсказка : MP3
Продолжительность : 44 м.
Вид битрейта : Постоянный
Битрейт : 192 Кбит/сек
Каналы : 2 канала
Частота : 48,0 КГц
Метод сжатия : С потерями
Размер потока : 61,2 Мбайт (8%)
Выравнивание : Соединение по промежуткам
Продолжительность промежутка : 40 мс. (1,00 видеокадр)
Время предзагрузки промежутка : 504 мс.
Библиотека кодирования : LAME3.99r
Настройки программы : -m s -V 4 -q 2 -lowpass 18.6 -b 192


Серия 4. Кавказские горы / The Great Divide (Caucasus):
От белоснежных вершин до раскаленных солнцем пустынь - все это Кавказ. Кавказские горы - не просто горный хребет. Это богатая среда обитания для многих представителей флоры и фауны, которые прекрасно себя чувствуют и на лесистых склонах, и в альпийских лугах, и даже в солончаках. Здесь хорошо прижились дикие кабаны, евразийская рысь, европейский бизон и редкая змееподобная ломкая ящерица. Кавказ - это еще одна жемчужина в короне Дикой природы России.

Качество: HDRip
Формат:AVI
Видео кодек: XviD
Аудио кодек: MP3
Видео: 16:9, 2113 Кбит/сек, 720x400, 25,000 кадров/сек
Аудио: MP3, 2 канала, 192 Кбит/сек, 48,0 КГц



Общее
Полное имя : J:Дикая природа России4. Кавказ.avi
Формат : AVI
Формат/Информация : Audio Video Interleave
Размер файла : 740 Мбайт
Продолжительность : 44 м.
Общий поток : 2314 Кбит/сек
Программа кодирования : VirtualDubMod 1.5.10.3 | www.virtualdub-fr.org || (build 2550/release)
Библиотека кодирования : VirtualDubMod build 2550/release

Видео
Идентификатор : 0
Формат : MPEG-4 Visual
Профиль формата : Advanced Simple@L5
Параметр BVOP формата : 2
Параметр QPel формата : Нет
Параметр GMC формата : Без точки перехода
Параметр матрицы формата : Default (MPEG)
Идентификатор кодека : XVID
Идентификатор кодека/Подсказка : XviD
Продолжительность : 44 м.
Битрейт : 2113 Кбит/сек
Ширина : 720 пикселей
Высота : 400 пикселей
Соотношение сторон : 16:9
Частота кадров : 25,000 кадров/сек
Цветовое пространство : YUV
Субдискретизация насыщенности : 4:2:0
Битовая глубина : 8 бит
Тип развёртки : Прогрессивная
Метод сжатия : С потерями
Бит/(Пиксели*Кадры) : 0.293
Размер потока : 675 Мбайт (91%)
Библиотека кодирования : XviD 1.2.1 (UTC 2008-12-04)

Аудио
Идентификатор : 1
Формат : MPEG Audio
Версия формата : Version 1
Профиль формата : Layer 3
Идентификатор кодека : 55
Идентификатор кодека/Подсказка : MP3
Продолжительность : 44 м.
Вид битрейта : Постоянный
Битрейт : 192 Кбит/сек
Каналы : 2 канала
Частота : 48,0 КГц
Метод сжатия : С потерями
Размер потока : 61,4 Мбайт (8%)
Выравнивание : Соединение по промежуткам
Продолжительность промежутка : 40 мс. (1,00 видеокадр)
Время предзагрузки промежутка : 504 мс.
Библиотека кодирования : LAME3.99r
Настройки программы : -m s -V 4 -q 2 -lowpass 18.6 -b 192


Серия 5. Заполярье / Arctic:
Жизнь видов, обитающих в суровых условиях Заполярья с его экстремально низкими температурами, - это сплошная борьба за выживание.

Качество: HDRip
Формат:AVI
Видео кодек: XviD
Аудио кодек: MP3
Видео: 16:9, 2106 Кбит/сек, 720x400, 25,000 кадров/сек
Аудио: MP3, 2 канала, 192 Кбит/сек, 48,0 КГц



Общее
Полное имя : J:Дикая природа России5. Арктика.avi
Формат : AVI
Формат/Информация : Audio Video Interleave
Размер файла : 736 Мбайт
Продолжительность : 44 м.
Общий поток : 2307 Кбит/сек
Программа кодирования : VirtualDubMod 1.5.10.3 | www.virtualdub-fr.org || (build 2550/release)
Библиотека кодирования : VirtualDubMod build 2550/release

Видео
Идентификатор : 0
Формат : MPEG-4 Visual
Профиль формата : Advanced Simple@L5
Параметр BVOP формата : 2
Параметр QPel формата : Нет
Параметр GMC формата : Без точки перехода
Параметр матрицы формата : Default (MPEG)
Идентификатор кодека : XVID
Идентификатор кодека/Подсказка : XviD
Продолжительность : 44 м.
Битрейт : 2106 Кбит/сек
Ширина : 720 пикселей
Высота : 400 пикселей
Соотношение сторон : 16:9
Частота кадров : 25,000 кадров/сек
Цветовое пространство : YUV
Субдискретизация насыщенности : 4:2:0
Битовая глубина : 8 бит
Тип развёртки : Прогрессивная
Метод сжатия : С потерями
Бит/(Пиксели*Кадры) : 0.292
Размер потока : 672 Мбайт (91%)
Библиотека кодирования : XviD 1.2.1 (UTC 2008-12-04)

Аудио
Идентификатор : 1
Формат : MPEG Audio
Версия формата : Version 1
Профиль формата : Layer 3
Идентификатор кодека : 55
Идентификатор кодека/Подсказка : MP3
Продолжительность : 44 м.
Вид битрейта : Постоянный
Битрейт : 192 Кбит/сек
Каналы : 2 канала
Частота : 48,0 КГц
Метод сжатия : С потерями
Размер потока : 61,2 Мбайт (8%)
Выравнивание : Соединение по промежуткам
Продолжительность промежутка : 40 мс. (1,00 видеокадр)
Время предзагрузки промежутка : 504 мс.
Библиотека кодирования : LAME3.99r
Настройки программы : -m s -V 4 -q 2 -lowpass 18.6 -b 192


Серия 6. Первозданные долины (Урал) / (Urals):
Совершите путешествие по величественным первозданным лесам Урала. Эти заповедные места известны своими крайностями, где прекрасно соседствуют и олени-великаны, и гигантские левиафаны, весом в полтонны, и крошечные зверьки. Сюда же, в поисках пищи, совершают свои сезонные набеги Евразийские лоси. В отличие от других видов лосей Евразийский лось живет в одиночку, поэтому для беременной самки лося стресс от встречи с другим животным обычно приводит к драке. Как только снег в лесу начинает таять, оголяя землю, одинокие волки отправляются на поиски пищи, не брезгуя останками замерзших животных...

Качество: HDRip
Формат:AVI
Видео кодек: XviD
Аудио кодек: MP3
Видео: 16:9, 2109 Кбит/сек, 720x400, 25,000 кадров/сек
Аудио: MP3, 2 канала, 192 Кбит/сек, 48,0 КГц



Общее
Полное имя : J:Дикая природа России6. Первозданные долины (Урал).avi
Формат : AVI
Формат/Информация : Audio Video Interleave
Размер файла : 738 Мбайт
Продолжительность : 44 м.
Общий поток : 2310 Кбит/сек
Программа кодирования : VirtualDubMod 1.5.10.3 | www.virtualdub-fr.org || (build 2550/release)
Библиотека кодирования : VirtualDubMod build 2550/release

Видео
Идентификатор : 0
Формат : MPEG-4 Visual
Профиль формата : Advanced Simple@L5
Параметр BVOP формата : 2
Параметр QPel формата : Нет
Параметр GMC формата : Без точки перехода
Параметр матрицы формата : Default (MPEG)
Идентификатор кодека : XVID
Идентификатор кодека/Подсказка : XviD
Продолжительность : 44 м.
Битрейт : 2109 Кбит/сек
Ширина : 720 пикселей
Высота : 400 пикселей
Соотношение сторон : 16:9
Частота кадров : 25,000 кадров/сек
Цветовое пространство : YUV
Субдискретизация насыщенности : 4:2:0
Битовая глубина : 8 бит
Тип развёртки : Прогрессивная
Метод сжатия : С потерями
Бит/(Пиксели*Кадры) : 0.293
Размер потока : 673 Мбайт (91%)
Библиотека кодирования : XviD 1.2.1 (UTC 2008-12-04)

Аудио
Идентификатор : 1
Формат : MPEG Audio
Версия формата : Version 1
Профиль формата : Layer 3
Идентификатор кодека : 55
Идентификатор кодека/Подсказка : MP3
Продолжительность : 44 м.
Вид битрейта : Постоянный
Битрейт : 192 Кбит/сек
Каналы : 2 канала
Частота : 48,0 КГц
Метод сжатия : С потерями
Размер потока : 61,3 Мбайт (8%)
Выравнивание : Соединение по промежуткам
Продолжительность промежутка : 40 мс. (1,00 видеокадр)
Время предзагрузки промежутка : 504 мс.
Библиотека кодирования : LAME3.99r
Настройки программы : -m s -V 4 -q 2 -lowpass 18.6 -b 192


Серия 7. Фильм о фильме / Making of:
Совершите уникальное путешествие в самые отдаленные и неизведанные уголки России, поражающие богатством дикой природы, где можно побывать в огнедышащих кратерах вулканов и в ледовых пустынях, встретить белого медведя и амурского тигра.

Качество: HDRip
Формат:AVI
Видео кодек: XviD
Аудио кодек: MP3
Видео: 16:9, 2106 Кбит/сек, 720x400, 25,000 кадров/сек
Аудио: MP3, 2 канала, 192 Кбит/сек, 48,0 КГц



Общее
Полное имя : J:Дикая природа России7. Фильм о фильме.avi
Формат : AVI
Формат/Информация : Audio Video Interleave
Размер файла : 739 Мбайт
Продолжительность : 44 м.
Общий поток : 2308 Кбит/сек
Программа кодирования : VirtualDubMod 1.5.10.3 | www.virtualdub-fr.org || (build 2550/release)
Библиотека кодирования : VirtualDubMod build 2550/release

Видео
Идентификатор : 0
Формат : MPEG-4 Visual
Профиль формата : Advanced Simple@L5
Параметр BVOP формата : 2
Параметр QPel формата : Нет
Параметр GMC формата : Без точки перехода
Параметр матрицы формата : Default (MPEG)
Идентификатор кодека : XVID
Идентификатор кодека/Подсказка : XviD
Продолжительность : 44 м.
Битрейт : 2106 Кбит/сек
Ширина : 720 пикселей
Высота : 400 пикселей
Соотношение сторон : 16:9
Частота кадров : 25,000 кадров/сек
Цветовое пространство : YUV
Субдискретизация насыщенности : 4:2:0
Битовая глубина : 8 бит
Тип развёртки : Прогрессивная
Метод сжатия : С потерями
Бит/(Пиксели*Кадры) : 0.293
Размер потока : 674 Мбайт (91%)
Библиотека кодирования : XviD 1.2.1 (UTC 2008-12-04)

Аудио
Идентификатор : 1
Формат : MPEG Audio
Версия формата : Version 1
Профиль формата : Layer 3
Идентификатор кодека : 55
Идентификатор кодека/Подсказка : MP3
Продолжительность : 44 м.
Вид битрейта : Постоянный
Битрейт : 192 Кбит/сек
Каналы : 2 канала
Частота : 48,0 КГц
Метод сжатия : С потерями
Размер потока : 61,5 Мбайт (8%)
Выравнивание : Соединение по промежуткам
Продолжительность промежутка : 40 мс. (1,00 видеокадр)
Время предзагрузки промежутка : 504 мс.
Библиотека кодирования : LAME3.99r
Настройки программы : -m s -V 4 -q 2 -lowpass 18.6 -b 192


Релиз от: R.G.RealMT



   Похожие торренты   Торрент   Размер 
В этой теме нет новых непрочитанных сообщений. National Geographic: Дикая природа России [6 серий из 6] / Wild Russia (2009) HDTVRip 720p

54 | 11

6.93 ГБ

В этой теме нет новых непрочитанных сообщений. Дикая природа России / Россия от края до края / Wild Russia [01-06 из 06] (2009) BDRip

5 | 3

4.11 ГБ

В этой теме нет новых непрочитанных сообщений. Дикая природа России / Россия от края до края / Wild Russia [01-06] (2009) BDRip 720p

102 | 21

13.46 ГБ

В этой теме нет новых непрочитанных сообщений. Дикая природа России / Россия от края до края / Wild Russia [S01] (2009) BDRip 1080p | P1

29 | 11

29.71 ГБ

В этой теме нет новых непрочитанных сообщений. Дикая природа России / Wild Russia (2008) BDRip от HELLYWOOD

90 | 5

4.36 ГБ

В этой теме нет новых непрочитанных сообщений. Дикая природа России / Wild Russia [01-06] (2008) BDRip от HQCLUB

41 | 5

4.36 ГБ

В этой теме нет новых непрочитанных сообщений. Дикая природа России / Wild Russia [01-06] (2008) BDRip 720p от NOLIMITS-TEAM

0 | 4

13.29 ГБ




Вы не можете начинать темы
Вы не можете отвечать на сообщения
Вы не можете редактировать свои сообщения
Вы не можете удалять свои сообщения
Вы не можете добавлять вложения

Перейти:  
Для Мосгорсуда, Роскомнадзора и рекламодателей: mosgorsud-torrent[собачка]yandex.ru
 Вход
ppkBB3cker v.2 © 2008-2014 @ PPK
[ Time : 0.625s | 14 Queries | GZIP : On ]

Торрент трекер RUTOR.IN, Не можете зайти на rutor.org? Какой новый адрес рутор? Какое зеркало рутор? Не работает rutor.org и зеркала? Тогда наш торрент специально для вас. Rutor.in неофициальное зеркало rutor. В случае если у Вас заблокирован rutor или вдруг Вы не можете на него зайти, то Вы без труда сможете скачать бесплатно и без рекламы последние новинки кино, игр, сериалов и прочего у нас, на Rutor.in. Не нужно использовать прокси, чтобы зайти на рутор, достаточно воспользоваться нашим ресурсом. Все новые фильмы, игры, сериалы, книги и музыка за 2013 и 2014 годы через торрент бесплатно. Скачивайте фильмы в хорошем качестве, игры для пк, xbox, playstation без регистрации. У нас вы найдете новые Зарубежные сериалы и Русские сериалы 2013, 2014, 2015 годов. Оставайтесь с нами, качайте любимые фильмы, игры, сериалы, книги и музыку.