img image001 image001 image001 image001 image001 image001 image001 image001 image001 image001 image001 image001 image001 image001 image001

Planets Sun Sun Sun
Статистика раздачи
Автор: Снежана | Размер: 748.27 МБ | Добавлен: 25 июл 2013
Раздают: 10    Качают: 1
Скачать торрент
Скачать торрент
Описание торрента

СообщениеДобавлено: 25 июл 2013 

#77

Название: Океаны
Оригинальное название: Océans
Слоган: «Великое зрелище от великого Создателя»
Год выпуска: 2009
Страна: Франция, Швейцария, Испания
Жанр: документальный, драма, семейный
Продолжительность: 01:43:51
Перевод: Профессиональный (дублированный) Олег Басилашвили
Русские субтитры: нет

Режиссер: Жак Перрен / Jacques Perrin, Жак Клюзо / Jacques Cluzaud

Описание: «Океаны» — масштабный проект Жака Перрена — создателя знаменитых «Птиц» и «Микрокосмоса». Фильм о безграничности и свободе подводного мира, репортаж из другого мира, чуждого человеку, но полного жизни. Создатели отнеслись к океану как к живому, разумному существу, и смогли передать это ощущение зрителям.
Как и предыдущие работы Перрена и его соавтора Жака Клюзо, «Океаны» перевернул понятие «документальный фильм о природе». В нём подводные жители становятся героями триллера и боевика, захватывающих погонь и комедий.
Фильм «Океаны» создавался в течение пяти лет, съемки велись в разных уголках планеты. Благодаря огромному для документального кино бюджету — 80 млн. долларов — для фильма были разработаны совершенно новые технологии для съёмки под водой.
Съёмочная группа множество раз обогнула земной шар: oт Аргентины до Японии, oт Калифорнии до Мозамбика, от Северного и до Южного полюса. О многом из того, что было снято, не подозревали даже океанологи-консультанты.
Фильм поразил воображение зарубежных зрителей и кинокритиков. Ощущения от просмотра «Океанов» сравнивают с американскими горками или путешествием на другую планету...



Качество: HDRip [BDRip 1080p]
Формат: AVI

Видео: XviD, 688x288 (2.40:1), 23.976 fps, 870 Kbps, 0.183 Bits/(Pixel*Frame)
Аудио: MP3, 48 KHz, 128 Kbps, 2 channels

Раздача от:


General
Complete name : D:Oceans.2009.HDRip.XviD.mp3.748mb.YTN.avi
Format : AVI
Format/Info : Audio Video Interleave
File size : 748 MiB
Duration : 1h 43mn
Overall bit rate : 1 007 Kbps
Writing application : VirtualDubMod 1.5.10.2 (build 2540/release)
Writing library : VirtualDubMod build 2540/release

Video
ID : 0
Format : MPEG-4 Visual
Format profile : Advanced Simple@L5
Format settings, BVOP : 1
Format settings, QPel : No
Format settings, GMC : No warppoints
Format settings, Matrix : Custom
Codec ID : XVID
Codec ID/Hint : XviD
Duration : 1h 43mn
Bit rate : 870 Kbps
Width : 688 pixels
Height : 288 pixels
Display aspect ratio : 2.40:1
Frame rate : 23.976 fps
Color space : YUV
Chroma subsampling : 4:2:0
Bit depth : 8 bits
Scan type : Progressive
Compression mode : Lossy
Bits/(Pixel*Frame) : 0.183
Stream size : 646 MiB (86%)
Writing library : XviD 65

Audio
ID : 1
Format : MPEG Audio
Format version : Version 1
Format profile : Layer 3
Mode : Joint stereo
Codec ID : 55
Codec ID/Hint : MP3
Duration : 1h 43mn
Bit rate mode : Constant
Bit rate : 128 Kbps
Channel(s) : 2 channels
Sampling rate : 48.0 KHz
Compression mode : Lossy
Stream size : 95.1 MiB (13%)
Alignment : Aligned on interleaves
Interleave, duration : 42 ms (1.00 video frame)
Interleave, preload duration : 504 ms




   Похожие торренты   Торрент   Размер 
В этой теме нет новых непрочитанных сообщений. Океаны / Océans / Oceans (2009) DVD9 от Youtracker

17 | 3

7.43 ГБ

В этой теме нет новых непрочитанных сообщений. Океаны / Oceans (2009) BDRip-AVC от Youtracker

105 | 6

1.46 ГБ

В этой теме нет новых непрочитанных сообщений. Океаны / Oceans (2009) HDRip от R.G.RealMT | D

124 | 10

1.67 ГБ

В этой теме нет новых непрочитанных сообщений. Океаны / Oceans (2009) HDRip | Лицензия

7 | 6

1.37 ГБ

В этой теме нет новых непрочитанных сообщений. Океаны / Oceans (2009) DVD9

7 | 2

7.43 ГБ

В этой теме нет новых непрочитанных сообщений. Океаны / Oceans (2009) BDRip от HQCLUB

34 | 6

2.18 ГБ

В этой теме нет новых непрочитанных сообщений. Океаны / Oceans (2009) BDRip 720p

108 | 16

4.35 ГБ




Вы не можете начинать темы
Вы не можете отвечать на сообщения
Вы не можете редактировать свои сообщения
Вы не можете удалять свои сообщения
Вы не можете добавлять вложения

Перейти:  
Для Мосгорсуда, Роскомнадзора и рекламодателей: mosgorsud-torrent[собачка]yandex.ru
 Вход
ppkBB3cker v.2 © 2008-2014 @ PPK
[ Time : 0.048s | 14 Queries | GZIP : Off ]

Торрент трекер RUTOR.IN, Не можете зайти на rutor.org? Какой новый адрес рутор? Какое зеркало рутор? Не работает rutor.org и зеркала? Тогда наш торрент специально для вас. Rutor.in неофициальное зеркало rutor. В случае если у Вас заблокирован rutor или вдруг Вы не можете на него зайти, то Вы без труда сможете скачать бесплатно и без рекламы последние новинки кино, игр, сериалов и прочего у нас, на Rutor.in. Не нужно использовать прокси, чтобы зайти на рутор, достаточно воспользоваться нашим ресурсом. Все новые фильмы, игры, сериалы, книги и музыка за 2013 и 2014 годы через торрент бесплатно. Скачивайте фильмы в хорошем качестве, игры для пк, xbox, playstation без регистрации. У нас вы найдете новые Зарубежные сериалы и Русские сериалы 2013, 2014, 2015 годов. Оставайтесь с нами, качайте любимые фильмы, игры, сериалы, книги и музыку.