img image001 image001 image001 image001 image001 image001 image001 image001 image001 image001 image001 image001 image001 image001 image001

Planets Sun Sun Sun
Статистика раздачи
Автор: Снежана | Размер: 5.33 ГБ | Добавлен: 25 июл 2013
Раздают: 1    Качают: 2
Скачать торрент
Скачать торрент
Описание торрента

СообщениеДобавлено: 25 июл 2013 

#77

Название: Сурикаты: Дикие приключения в пустыне Калахари
Оригинальное название: The Meerkats Gang: Wild Adventures in the Kalahari Desert
Год выпуска: 2012
Жанр: Документальный, познавательный, животный мир
Выпущено: США
Продолжительность: 00:30:38
Перевод: Отсутствует
Субтитры: Русские, немецкие

Режиссер: Крис Баркер, Майк Сли

О фильме: Документальный фильм о жизни колонии сурикатов в пустыне Калахари.

Качество: BDRip 1080p
Видео: MPEG-4 AVC, 23.5 Мбит/с, 1920x1080
Аудио: Немецкий, английский (AC3, 6 ch, 448 Кбит/с)
Стереоформат: Вертикальная анаморфная стереопара. Для просмотра этого фильма в 3D формате необходимо соответствующее оборудование.

Complete name : D:Syrikati.3D.2011.HOU.mkv
Format : Matroska
Format version : Version 2
File size : 5.33 GiB
Duration : 30mn 39s
Overall bit rate : 24.9 Mbps
Encoded date : UTC 2013-03-02 10:31:42
Writing application : mkvmerge v3.0.0 ('Hang up your Hang-Ups') built on Dec 12 2009 15:20:35
Writing library : libebml v0.7.9 + libmatroska v0.8.1

Video
ID : 1
Format : AVC
Format/Info : Advanced Video Codec
Format profile : High@L4.1
Format settings, CABAC : Yes
Format settings, ReFrames : 4 frames
Codec ID : V_MPEG4/ISO/AVC
Duration : 30mn 39s
Bit rate : 23.5 Mbps
Width : 1 920 pixels
Height : 1 080 pixels
Display aspect ratio : 16:9
Frame rate mode : Constant
Frame rate : 23.976 fps
Color space : YUV
Chroma subsampling : 4:2:0
Bit depth : 8 bits
Scan type : Progressive
Bits/(Pixel*Frame) : 0.473
Stream size : 5.03 GiB (94%)
Writing library : x264 core 129 r2230 1cffe9f
Encoding settings : cabac=1 / ref=4 / deblock=1:0:0 / analyse=0x3:0x113 / me=umh / subme=9 / psy=1 / psy_rd=1.00:0.00 / mixed_ref=1 / me_range=24 / chroma_me=1 / trellis=1 / 8x8dct=1 / cqm=0 / deadzone=21,11 / fast_pskip=1 / chroma_qp_offset=-2 / threads=3 / lookahead_threads=1 / sliced_threads=0 / nr=0 / decimate=1 / interlaced=0 / bluray_compat=0 / constrained_intra=0 / bframes=6 / b_pyramid=2 / b_adapt=2 / b_bias=0 / direct=1 / weightb=1 / open_gop=0 / weightp=2 / keyint=250 / keyint_min=23 / scenecut=40 / intra_refresh=0 / rc_lookahead=40 / rc=crf / mbtree=1 / crf=16.0 / qcomp=0.60 / qpmin=0 / qpmax=69 / qpstep=4 / ip_ratio=1.40 / aq=1:1.00
Default : Yes
Forced : No

Audio #1
ID : 2
Format : AC-3
Format/Info : Audio Coding 3
Mode extension : CM (complete main)
Format settings, Endianness : Big
Codec ID : A_AC3
Duration : 30mn 39s
Bit rate mode : Constant
Bit rate : 448 Kbps
Channel(s) : 6 channels
Channel positions : Front: L C R, Side: L R, LFE
Sampling rate : 48.0 KHz
Bit depth : 16 bits
Compression mode : Lossy
Stream size : 98.2 MiB (2%)
Title : German
Language : German
Default : Yes
Forced : No

Audio #2
ID : 3
Format : AC-3
Format/Info : Audio Coding 3
Mode extension : CM (complete main)
Format settings, Endianness : Big
Codec ID : A_AC3
Duration : 30mn 39s
Bit rate mode : Constant
Bit rate : 448 Kbps
Channel(s) : 6 channels
Channel positions : Front: L C R, Side: L R, LFE
Sampling rate : 48.0 KHz
Bit depth : 16 bits
Compression mode : Lossy
Stream size : 98.2 MiB (2%)
Title : English
Language : English
Default : No
Forced : No

Text #1
ID : 4
Format : UTF-8
Codec ID : S_TEXT/UTF8
Codec ID/Info : UTF-8 Plain Text
Title : Russian
Language : Russian
Default : Yes
Forced : No

Text #2
ID : 5
Format : UTF-8
Codec ID : S_TEXT/UTF8
Codec ID/Info : UTF-8 Plain Text
Title : German
Language : German
Default : No
Forced : No






   Похожие торренты   Торрент   Размер 
В этой теме нет новых непрочитанных сообщений. Дикая Калахари / Wild Kalahari (2013) HDTVRip от HitWay | D

109 | 14

516.3 МБ

В этой теме нет новых непрочитанных сообщений. Сурикаты / The Meerkats (2008) BDRip от HQ-ViDEO

13 | 9

1.72 ГБ

В этой теме нет новых непрочитанных сообщений. National Geographic: Калахари. Затопленная Пустыня / National Geographic: Kalahari. The Flooded Desert (2009) HDTVRip от -=HD-NET=-

4 | 3

776.47 МБ

В этой теме нет новых непрочитанных сообщений. Сурикаты / The Meerkats (2008) BDRip от Y.T.N | D

13 | 7

819.95 МБ

В этой теме нет новых непрочитанных сообщений. Сурикаты / The Meerkats (2008) BDRip от HELLYWOOD

6 | 1

1.46 ГБ

В этой теме нет новых непрочитанных сообщений. Сурикаты / The Meerkats (2008) BDRip 720p от HDClub

22 | 2

4.74 ГБ

В этой теме нет новых непрочитанных сообщений. Сурикаты / The Meerkats (2008) BDRip 720p от NOLIMITS-TEAM

8 | 5

2.18 ГБ




Вы не можете начинать темы
Вы не можете отвечать на сообщения
Вы не можете редактировать свои сообщения
Вы не можете удалять свои сообщения
Вы не можете добавлять вложения

Перейти:  
Для Мосгорсуда, Роскомнадзора и рекламодателей: mosgorsud-torrent[собачка]yandex.ru
 Вход
ppkBB3cker v.2 © 2008-2014 @ PPK
[ Time : 1.242s | 14 Queries | GZIP : On ]

Торрент трекер RUTOR.IN, Не можете зайти на rutor.org? Какой новый адрес рутор? Какое зеркало рутор? Не работает rutor.org и зеркала? Тогда наш торрент специально для вас. Rutor.in неофициальное зеркало rutor. В случае если у Вас заблокирован rutor или вдруг Вы не можете на него зайти, то Вы без труда сможете скачать бесплатно и без рекламы последние новинки кино, игр, сериалов и прочего у нас, на Rutor.in. Не нужно использовать прокси, чтобы зайти на рутор, достаточно воспользоваться нашим ресурсом. Все новые фильмы, игры, сериалы, книги и музыка за 2013 и 2014 годы через торрент бесплатно. Скачивайте фильмы в хорошем качестве, игры для пк, xbox, playstation без регистрации. У нас вы найдете новые Зарубежные сериалы и Русские сериалы 2013, 2014, 2015 годов. Оставайтесь с нами, качайте любимые фильмы, игры, сериалы, книги и музыку.