img image001 image001 image001 image001 image001 image001 image001 image001 image001 image001 image001 image001 image001 image001 image001

Planets Sun Sun Sun
Статистика раздачи
Автор: Снежана | Размер: 744.66 МБ | Добавлен: 24 июл 2013
Раздают: 2    Качают: 2
Скачать торрент
Скачать торрент
Описание торрента

СообщениеДобавлено: 24 июл 2013 

#77

Название: Птицы
Оригинальное название: Le peuple migrateur
Год выпуска: 2001
Страна: Франция, Италия, Германия, Испания, Швейцария
Жанр: документальный
Продолжительность: 01:29:17
Перевод: Профессиональный (одноголосый закадровый)
Субтитры: нет

Режиссеры: Жак Перрен / Jacques Perrin, Жак Клюзо / Jacques Cluzaud, Мишель Деба / Michel Debats

Описание: Этот сенсационный фильм — зрелище настолько завораживающее, что никакие спецэффекты не смогли бы передать невообразимую реальность происходящего. Работа операторов поистине уникальна — впервые в истории кино птиц снимали непосредственно во время полета.

Чтобы запечатлеть сезонные миграции главных героев, была максимально усовершенствована съемочная техника, ведь снимать пришлось и в арктическом холоде, и в болоте, и в тумане, а главное — были разработаны сверхлегкие летательные аппараты, способные летать со скоростью и на высоте птиц. Над фильмом работало около 500 человек из разных стран мира, съемки заняли целых три года.



Качество: HDRip [BDRip 1080p]
Формат: AVI

Видео: XviD, 704x384 (16:9), 23.976 fps, 1 029 Kbps, 0.159 Bits/(Pixel*Frame)
Аудио: MP3, 48 kHz, 128 Kbps, 2 channels

Раздача от:



General
Complete name : D:Pticy.2001.HDRip.XviD.mp3.745mb.YTN.avi
Format : AVI
Format/Info : Audio Video Interleave
File size : 745 MiB
Duration : 1h 29mn
Overall bit rate : 1 166 Kbps
Writing application : VirtualDubMod 1.5.10.2 (build 2540/release)
Writing library : VirtualDubMod build 2540/release

Video
ID : 0
Format : MPEG-4 Visual
Format profile : Advanced Simple@L5
Format settings, BVOP : 1
Format settings, QPel : No
Format settings, GMC : No warppoints
Format settings, Matrix : Custom
Codec ID : XVID
Codec ID/Hint : XviD
Duration : 1h 29mn
Bit rate : 1 029 Kbps
Width : 704 pixels
Height : 384 pixels
Display aspect ratio : 16:9
Frame rate : 23.976 fps
Color space : YUV
Chroma subsampling : 4:2:0
Bit depth : 8 bits
Scan type : Progressive
Compression mode : Lossy
Bits/(Pixel*Frame) : 0.159
Stream size : 657 MiB (88%)
Writing library : XviD 65

Audio
ID : 1
Format : MPEG Audio
Format version : Version 1
Format profile : Layer 3
Mode : Joint stereo
Codec ID : 55
Codec ID/Hint : MP3
Duration : 1h 29mn
Bit rate mode : Constant
Bit rate : 128 Kbps
Channel(s) : 2 channels
Sampling rate : 48.0 KHz
Compression mode : Lossy
Stream size : 81.7 MiB (11%)
Alignment : Aligned on interleaves
Interleave, duration : 42 ms (1.00 video frame)
Interleave, preload duration : 504 ms


Торрент перезалит!

Исправлен недокроп. Убрал слева светло-зелёную полоску размером 2 пикселя и чёрную справа размером 2 пикселя.
Приношу извинения за неудобства.



   Похожие торренты   Торрент   Размер 
В этой теме нет новых непрочитанных сообщений. Птицы / Winged Migration / Le peuple migrateur (2001) BD-remux

21 | 12

21.68 ГБ

В этой теме нет новых непрочитанных сообщений. Птицы / Winged Migration / Le peuple migrateur (2001) BDRip 1080p

0 | 0

6.91 ГБ

В этой теме нет новых непрочитанных сообщений. Птицы / Winged Migration / Le peuple migrateur (2001) BDRip от HQ-ViDEO

354 | 4

1.46 ГБ

В этой теме нет новых непрочитанных сообщений. Птицы / Winged Migration / Le peuple migrateur (2001) BDRip-AVC от ExKinoRay

14 | 9

2.43 ГБ

В этой теме нет новых непрочитанных сообщений. Птицы / Winged Migration / Le peuple migrateur (2001) BDRip от HELLYWOOD

7 | 4

1.45 ГБ

В этой теме нет новых непрочитанных сообщений. Птицы / Winged Migration / Le peuple migrateur (2001) BDRip 1080p

18 | 4

7.76 ГБ

В этой теме нет новых непрочитанных сообщений. Птицы / Le peuple migrateur (2001) BDRip-AVC от New-Team

14 | 7

2.18 ГБ




Вы не можете начинать темы
Вы не можете отвечать на сообщения
Вы не можете редактировать свои сообщения
Вы не можете удалять свои сообщения
Вы не можете добавлять вложения

Перейти:  
Для Мосгорсуда, Роскомнадзора и рекламодателей: mosgorsud-torrent[собачка]yandex.ru
 Вход
ppkBB3cker v.2 © 2008-2014 @ PPK
[ Time : 0.041s | 15 Queries | GZIP : Off ]

cron