img image001 image001 image001 image001 image001 image001 image001 image001 image001 image001 image001 image001 image001 image001 image001

Planets Sun Sun Sun
Статистика раздачи
Автор: Снежана | Размер: 742.13 МБ | Добавлен: 24 июл 2013
Раздают: 1    Качают: 3
Скачать торрент
Скачать торрент
Описание торрента

СообщениеДобавлено: 24 июл 2013 

Дикий запад. Кино и реальность

The Wild & the West


#77

Страна: США
Жанр: документальный
Год выпуска: 2006
Продолжительность: 00:52:36
Перевод: Профессиональный (двухголосый закадровый)
Cубтитры: нет

Режиссер: Манфред Крист / Manfred Christ

В ролях: Питер Дж. Браун (Peter J. Brown), Джо Демми (Joe Demmi), Таня Тернер (Tanya Turner), Тэдд Тернер (Thadd Turner)

Описание: Приветствую! Я человек без имени. Ну в общем-то меня на самом деле зовут Джо Демми, но думаю это не имеет значения. Мы тут работаем над документальным фильмом об американском западе. Расскажем вам про животных и про растения. Ну в общем-то это скорее документальный фильм о вестернах, снятых на американском западе. Я хочу чтобы вы все посмотрели этот фильм. Каждый переселенец должен посмотреть его. Не вздумайте отказаться, иначе я с вами разберусь...

История о том, где и как снимались самые знаменитые вестерны. Мы побываем на земле ковбоев и диких мустангов, в долине реки Рио-Гранде, в пустыне Чихуахуа, и в краю техасских рейнджеров.



Качество видео: HDTVRip [HDTVRip 720p]
Формат видео: AVI

Видео: XviD, 720x400 (16:9), 25 fps, 1 771 Kbps, 0.246 Bits/(Pixel*Frame)
Аудио: MP2, 48 KHz, 192 Kbps, 2 channels

Раздача от:
General
Complete name : D:The.Wild.And.The.West.2006.HDTVRip.XviD.mp2.742mb.YTN.avi
Format : AVI
Format/Info : Audio Video Interleave
File size : 742 MiB
Duration : 52mn 36s
Overall bit rate : 1 973 Kbps
Writing application : VirtualDubMod 1.5.10.2 (build 2540/release)
Writing library : VirtualDubMod build 2540/release

Video
ID : 0
Format : MPEG-4 Visual
Format profile : Advanced Simple@L5
Format settings, BVOP : 1
Format settings, QPel : No
Format settings, GMC : No warppoints
Format settings, Matrix : Custom
Codec ID : XVID
Codec ID/Hint : XviD
Duration : 52mn 36s
Bit rate : 1 771 Kbps
Width : 720 pixels
Height : 400 pixels
Display aspect ratio : 16:9
Frame rate : 25.000 fps
Color space : YUV
Chroma subsampling : 4:2:0
Bit depth : 8 bits
Scan type : Progressive
Compression mode : Lossy
Bits/(Pixel*Frame) : 0.246
Stream size : 666 MiB (90%)
Writing library : XviD 65

Audio
ID : 1
Format : MPEG Audio
Format version : Version 1
Format profile : Layer 2
Codec ID : 50
Duration : 52mn 36s
Bit rate mode : Constant
Bit rate : 192 Kbps
Channel(s) : 2 channels
Sampling rate : 48.0 KHz
Compression mode : Lossy
Stream size : 72.2 MiB (10%)
Alignment : Aligned on interleaves
Interleave, duration : 40 ms (1.00 video frame)
Interleave, preload duration : 504 ms




   Похожие торренты   Торрент   Размер 
В этой теме нет новых непрочитанных сообщений. Дикий запад. Кино и реальность / The Wild And The West (2005) HDTVRip-AVC от Тorrent-Хzona

0 | 3

731.22 МБ

В этой теме нет новых непрочитанных сообщений. Дикий, дикий Запад / Дикий, дикий Вест / Wild Wild West (1999) BDRip 720p от FireBit

5 | 6

4.84 ГБ

В этой теме нет новых непрочитанных сообщений. Дикий, дикий Запад / Дикий, дикий Вест / Wild Wild West (1999) BDRip 720p от FireBit

26 | 15

2.45 ГБ

В этой теме нет новых непрочитанных сообщений. Дикий, дикий Вест / Дикий, дикий Запад / Wild Wild West (1999) BDRip 720p

351 | 21

3.63 ГБ

В этой теме нет новых непрочитанных сообщений. Дикий, дикий Запад / Дикий, дикий Вест / Wild Wild West (1999) BDRip 1080p

31 | 6

4.36 ГБ

В этой теме нет новых непрочитанных сообщений. Дикий, дикий Запад / Wild Wild West (1999) HDTVRip (720p) от NOLIMITS-TEAM

7 | 2

2.12 ГБ

В этой теме нет новых непрочитанных сообщений. Дикий, дикий Запад / Дикий, дикий Вест / Wild Wild West (1999) BDRip-AVC

4 | 2

3.37 ГБ




Вы не можете начинать темы
Вы не можете отвечать на сообщения
Вы не можете редактировать свои сообщения
Вы не можете удалять свои сообщения
Вы не можете добавлять вложения

Перейти:  
Для Мосгорсуда, Роскомнадзора и рекламодателей: mosgorsud-torrent[собачка]yandex.ru
 Вход
ppkBB3cker v.2 © 2008-2014 @ PPK
[ Time : 0.042s | 15 Queries | GZIP : Off ]

cron