img image001 image001 image001 image001 image001 image001 image001 image001 image001 image001 image001 image001 image001 image001 image001

Planets Sun Sun Sun
Статистика раздачи
Автор: Снежана | Размер: 1.54 ГБ | Добавлен: 25 июл 2013
Раздают: 69    Качают: 3
Скачать торрент
Скачать торрент
Описание торрента

СообщениеДобавлено: 25 июл 2013 

#77

Название: Тайна горы мертвецов. Перевал Дятлова
Год выпуска: 2013
Жанр: Документальный
Выпущено: Россия
Режиссер: Максим Огечин

О фильме: В 1959 году группа молодых людей из Свердловска отправилась в лыжный переход по маршруту поселок Ивдель - поселок Вижай. Возглавлял группу Юрий Дятлов. Позже ее так и назовут "группа Дятлова". Протяженность маршрута должна была составить не менее 350 км. По критериям того времени переход можно было отнести к категории "особой сложности". В конце января 1959 года, вопреки ожиданиям родственников и близких, группа не вышла в намеченное время и в назначенное место. Первыми забили тревогу родственники. Именно они настояли на вылете к месту возможного исчезновения туристов группы спасателей. И уже через несколько дней у горы Холатчахль (в переводе с языка манси "Гора мертвецов") спасатели обнаруживают брошенную палатку, а позже тела первых троих погибших. Через несколько дней - еще двоих. Четверых последних обнаружат только в начале мая 1959 года. Уже с самых первых дней исследование тел погибших и характер обнаруженных ранений - а в ряде случаев, как установило следствие, именно они стали причиной гибели туристов, - порождают множество слухов о причинах их гибели. Уже в те дни по Свердловску гуляли самые невероятные версии: попали в зону испытаний нового оружия, убили беглые заключенные, охотники-манси и другие. Вскоре волну этих слухов подстегнула информация о том, что причины гибели людей не найдены, но все следственные действия прекращены, а дело закрыто. За годы, прошедшие с момента гибели "группы Дятлова", к тем версиям, которые родились в первые дни, прибавились новые. В рамках фильма исследованы наиболее популярные и упорно поддерживаемые многочисленными исследователями той трагедии...

Продолжительность: 02 х ~ 00:43:00
Язык: Русский

Качество: DVB
Формат: MPEG-PS
Видео: MPЕG2, 720x576@768x576 (4:3), ~2280 Kbps
Аудио: MP1, 2 ch, 192 Кбит/сек

General
Complete name : M:ВЫКЛАДКАDVBТайна горы мертвецов. Перевал Дятлова (2013, Документальный, DVB) (MYDIMKA)Фильм 01.mpg
Format : MPEG-PS
File size : 783 MiB
Duration : 43mn 21s
Overall bit rate mode : Variable
Overall bit rate : 2 523 Kbps
Writing library : (c) 1998-2012 Womble Multimedia, Inc. / MPEG Video Wizard DVD 5.0.1.100 (03/2011) / Sep 22 2012

Video
ID : 224 (0xE0)
Format : MPEG Video
Format version : Version 2
Format profile : Main@Main
Format settings, BVOP : Yes
Format settings, Matrix : Custom
Format settings, GOP : M=3, N=36
Duration : 43mn 21s
Bit rate mode : Variable
Bit rate : 2 281 Kbps
Maximum bit rate : 15.0 Mbps
Width : 720 pixels
Height : 576 pixels
Display aspect ratio : 4:3
Frame rate : 25.000 fps
Standard : PAL
Color space : YUV
Chroma subsampling : 4:2:0
Bit depth : 8 bits
Scan type : Interlaced
Scan order : Top Field First
Compression mode : Lossy
Bits/(Pixel*Frame) : 0.220
Stream size : 707 MiB (90%)
Alignment : (c) 1998-2012 Womble Multimedia, Inc. / MPEG Video Wizard DVD 5.0.1.100 (03/2011) / Sep 22 2012
Title : (c) 1998-2012 Womble Multimedia, Inc. / MPEG Video Wizard DVD 5.0.1.100 (03/2011) / Sep 22 2012
Writing library : (c) 1998-2012 Womble Multimedia, Inc. / MPEG Video Wizard DVD 5.0.1.100 (03/2011) / Sep 22 2012

Audio
ID : 192 (0xC0)
Format : MPEG Audio
Format version : Version 1
Format profile : Layer 2
Duration : 43mn 21s
Bit rate mode : Constant
Bit rate : 192 Kbps
Channel(s) : 2 channels
Sampling rate : 48.0 KHz
Compression mode : Lossy
Stream size : 59.5 MiB (8%)




Релиз от:



   Похожие торренты   Торрент   Размер 
В этой теме нет новых непрочитанных сообщений. Тайна горы мертвецов. Перевал Дятлова [01-02 из 02] (2013) SATRip

15 | 6

1.06 ГБ

В этой теме нет новых непрочитанных сообщений. Тайна горы мертвецов. Перевал Дятлова [01-02 из 02] (2013) HDTV 1080i

2 | 2

5.1 ГБ

В этой теме нет новых непрочитанных сообщений. Тайна горы мертвецов. Перевал Дятлова [01-02 из 02] (2013) HDTVRip 720p

140 | 8

2.45 ГБ

В этой теме нет новых непрочитанных сообщений. Тайна горы мертвецов. Перевал Дятлова (2013) HDTVRip от Sanjar & NeoJet | КПК

104 | 2

262.21 МБ

В этой теме нет новых непрочитанных сообщений. Перевал Дятлова. Тайна раскрыта (2015) SATRip от Generalfilm

1440 | 51

642.21 МБ

В этой теме нет новых непрочитанных сообщений. Бейкер Алан - Перевал Дятлова (2013) MP3

27 | 6

1.11 ГБ

В этой теме нет новых непрочитанных сообщений. Бейкер Алан - Перевал Дятлова (2012) (2013) M4B

10 | 4

598.35 МБ




Вы не можете начинать темы
Вы не можете отвечать на сообщения
Вы не можете редактировать свои сообщения
Вы не можете удалять свои сообщения
Вы не можете добавлять вложения

Перейти:  
Для Мосгорсуда, Роскомнадзора и рекламодателей: mosgorsud-torrent[собачка]yandex.ru
 Вход
ppkBB3cker v.2 © 2008-2014 @ PPK
[ Time : 4.429s | 15 Queries | GZIP : Off ]

Торрент трекер RUTOR.IN, Не можете зайти на rutor.org? Какой новый адрес рутор? Какое зеркало рутор? Не работает rutor.org и зеркала? Тогда наш торрент специально для вас. Rutor.in неофициальное зеркало rutor. В случае если у Вас заблокирован rutor или вдруг Вы не можете на него зайти, то Вы без труда сможете скачать бесплатно и без рекламы последние новинки кино, игр, сериалов и прочего у нас, на Rutor.in. Не нужно использовать прокси, чтобы зайти на рутор, достаточно воспользоваться нашим ресурсом. Все новые фильмы, игры, сериалы, книги и музыка за 2013 и 2014 годы через торрент бесплатно. Скачивайте фильмы в хорошем качестве, игры для пк, xbox, playstation без регистрации. У нас вы найдете новые Зарубежные сериалы и Русские сериалы 2013, 2014, 2015 годов. Оставайтесь с нами, качайте любимые фильмы, игры, сериалы, книги и музыку.
cron