img image001 image001 image001 image001 image001 image001 image001 image001 image001 image001 image001 image001 image001 image001 image001

Planets Sun Sun Sun
Статистика раздачи
Автор: Снежана | Размер: 14.11 ГБ | Добавлен: 25 июл 2013
Раздают: 0    Качают: 11
Скачать торрент
Скачать торрент
Описание торрента

СообщениеДобавлено: 25 июл 2013 

Discovery Атлас / Discovery Atlas



Год выпуска: 2006 – 2007
Страна: США
Жанр: Документальный
Перевод: Профессиональный двухголосый

Режиссер: смотри спойлер

Описание:
Канал Discovery дарит зрителям весь земной шар. Яркие истории жизни самых разных людей сняты в различных странах мира. Эти невероятные сюжеты раскрывают культуру и традиции государств, и делают проект особенно колоритным.



Discovery Atlas: Китай / Discovery Atlas: China Revealed



Год выпуска: 2006
Страна: США
Жанр: Документальный
Продолжительность: 1 ч. 41 м.

Режиссер: Ричард Брэдли

Описание: Спустя долгие тысячелетия, одна из наиболее древних и самая многочисленная нация Земли, наконец, открывает двери в свой загадочный и удивительный мир. Этот фильм позволит нам обратиться к корням китайской цивилизации и культуры посредством историй семи разных людей: от Винсента Ло, известного как "китайский Дональд Трамп" до мигранта-рабочего, юной гимнастки - участницы Олимпиады-2008, женщины-полицейского, рыбака и других. Их глазами мы увидим всю красоту Китая, а так же величайшие изменения, произошедшие в период с древних веков и до наших дней.

Качество: DVDRip
Формат:AVI
Видео кодек: XviD
Аудио кодек: MP3
Видео: 16:9, 2100 Кбит/сек, 720x400, 25,000 кадров/сек
Аудио: MP3, 2 канала, 192 Кбит/сек, 48,0 КГц



Общее
Полное имя : D:Discovery Atlas�1 China.avi
Формат : AVI
Формат/Информация : Audio Video Interleave
Размер файла : 1,64 Гбайт
Продолжительность : 1 ч. 41 м.
Общий поток : 2301 Кбит/сек
Программа кодирования : VirtualDubMod 1.5.10.3 | www.virtualdub-fr.org || (build 2550/release)
Библиотека кодирования : VirtualDubMod build 2550/release

Видео
Идентификатор : 0
Формат : MPEG-4 Visual
Профиль формата : Advanced Simple@L5
Параметр BVOP формата : 2
Параметр QPel формата : Нет
Параметр GMC формата : Без точки перехода
Параметр матрицы формата : Default (H.263)
Режим смешивания : Сжатый битовый поток
Идентификатор кодека : XVID
Идентификатор кодека/Подсказка : XviD
Продолжительность : 1 ч. 41 м.
Битрейт : 2100 Кбит/сек
Ширина : 720 пикселей
Высота : 400 пикселей
Соотношение сторон : 16:9
Частота кадров : 25,000 кадров/сек
Цветовое пространство : YUV
Субдискретизация насыщенности : 4:2:0
Битовая глубина : 8 бит
Тип развёртки : Прогрессивная
Метод сжатия : С потерями
Бит/(Пиксели*Кадры) : 0.292
Размер потока : 1,50 Гбайт (91%)
Библиотека кодирования : XviD 1.2.1 (UTC 2008-12-04)

Аудио
Идентификатор : 1
Формат : MPEG Audio
Версия формата : Version 1
Профиль формата : Layer 3
Идентификатор кодека : 55
Идентификатор кодека/Подсказка : MP3
Продолжительность : 1 ч. 41 м.
Вид битрейта : Постоянный
Битрейт : 192 Кбит/сек
Каналы : 2 канала
Частота : 48,0 КГц
Метод сжатия : С потерями
Размер потока : 140 Мбайт (8%)
Выравнивание : Соединение по промежуткам
Продолжительность промежутка : 40 мс. (1,00 видеокадр)
Время предзагрузки промежутка : 504 мс.
Библиотека кодирования : LAME3.99r
Настройки программы : -m s -V 4 -q 2 -lowpass 18.6 -b 192


Discovery Atlas: Австралия / Discovery Atlas: Australia Revealed



Год выпуска: 2006
Страна: США
Жанр: Документальный
Продолжительность: 1 ч. 40 м.

Режиссер: Крис Торберн

Описание: Добро пожаловать в фантастическое путешествие по одной из самых удивительных стран мира - Австралии! Сквозь огромные города, дикие незаселенные пустоши и крошечные деревушки этой невероятно красивой гостеприимной земли - навстречу яркому солнцу и безбрежному океану. Историю своей страны рассказывает известный голливудский актер Рассел Кроу. Рассел - истинный фанат своей страны, и это чувствуется в каждом произнесенном им слове. Помимо увлекательного путешествия по континенту нас ожидает множество интервью с жителями Австралии, занимающими разные должности и составляющими разные социальные слои населения, которые способны рассказать о своем зеленом континенте огромное количество невероятных, но абсолютно правдивых историй.

Качество: DVDRip
Формат:AVI
Видео кодек: XviD
Аудио кодек: MP3
Видео: 16:9, 2100 Кбит/сек, 720x400, 25,000 кадров/сек
Аудио: MP3, 2 канала, 192 Кбит/сек, 48,0 КГц



Общее
Полное имя : D:Discovery Atlas�2 Australia.avi
Формат : AVI
Формат/Информация : Audio Video Interleave
Размер файла : 1,62 Гбайт
Продолжительность : 1 ч. 40 м.
Общий поток : 2301 Кбит/сек
Программа кодирования : VirtualDubMod 1.5.10.3 | www.virtualdub-fr.org || (build 2550/release)
Библиотека кодирования : VirtualDubMod build 2550/release

Видео
Идентификатор : 0
Формат : MPEG-4 Visual
Профиль формата : Advanced Simple@L5
Параметр BVOP формата : 2
Параметр QPel формата : Нет
Параметр GMC формата : Без точки перехода
Параметр матрицы формата : Default (H.263)
Режим смешивания : Сжатый битовый поток
Идентификатор кодека : XVID
Идентификатор кодека/Подсказка : XviD
Продолжительность : 1 ч. 40 м.
Битрейт : 2100 Кбит/сек
Ширина : 720 пикселей
Высота : 400 пикселей
Соотношение сторон : 16:9
Частота кадров : 25,000 кадров/сек
Цветовое пространство : YUV
Субдискретизация насыщенности : 4:2:0
Битовая глубина : 8 бит
Тип развёртки : Прогрессивная
Метод сжатия : С потерями
Бит/(Пиксели*Кадры) : 0.292
Размер потока : 1,48 Гбайт (91%)
Библиотека кодирования : XviD 1.2.1 (UTC 2008-12-04)

Аудио
Идентификатор : 1
Формат : MPEG Audio
Версия формата : Version 1
Профиль формата : Layer 3
Идентификатор кодека : 55
Идентификатор кодека/Подсказка : MP3
Продолжительность : 1 ч. 40 м.
Вид битрейта : Постоянный
Битрейт : 192 Кбит/сек
Каналы : 2 канала
Частота : 48,0 КГц
Метод сжатия : С потерями
Размер потока : 139 Мбайт (8%)
Выравнивание : Соединение по промежуткам
Продолжительность промежутка : 40 мс. (1,00 видеокадр)
Время предзагрузки промежутка : 504 мс.
Библиотека кодирования : LAME3.99r
Настройки программы : -m s -V 4 -q 2 -lowpass 18.6 -b 192


Discovery Atlas: Россия / Discovery Atlas: Russia Revealed



Год выпуска: 2006
Страна: США
Жанр: Документальный
Продолжительность: 1 ч. 36 м.

Режиссер: Том Поллок

Описание: Территория России почти вдвое превышает размеры Соединенных Штатов и охватывает одиннадцать часовых поясов. Российская Федерация на сегодняшний день - самая большая страна в мире. Повсюду здесь люди стремятся к новым горизонтам.
В Республике Татарстан молодая цирковая акробатка Алена Аверина пытается воплотить свою мечту и стать звездой цирка.
В самом сердце холодной Сибири оленевод Миша Молданов ощущает силу зова дикой природы и кочевой жизни.
На реке Дон священник отец Геннадий и его плавучая церковь дарят надежду страждущим.
В горах Кавказа дагестанец Магомедхан, следуя зову своего сердца, возрождает старинное искусство изготовления ковров.
А на Дальнем Востоке ученый-вулканолог Саша Овсянников бросает вызов вулканам Камчатки, мечтая сделать мир более безопасным.
У каждого из этих людей - своя Россия. Мы расскажем о каждом из них.

Качество: DVDRip
Формат:AVI
Видео кодек: XviD
Аудио кодек: MP3
Видео: 16:9, 2100 Кбит/сек, 720x400, 25,000 кадров/сек
Аудио: MP3, 2 канала, 192 Кбит/сек, 48,0 КГц



Общее
Полное имя : D:Discovery Atlas�3 Russia.avi
Формат : AVI
Формат/Информация : Audio Video Interleave
Размер файла : 1,55 Гбайт
Продолжительность : 1 ч. 36 м.
Общий поток : 2301 Кбит/сек
Программа кодирования : VirtualDubMod 1.5.10.3 | www.virtualdub-fr.org || (build 2550/release)
Библиотека кодирования : VirtualDubMod build 2550/release

Видео
Идентификатор : 0
Формат : MPEG-4 Visual
Профиль формата : Advanced Simple@L5
Параметр BVOP формата : 2
Параметр QPel формата : Нет
Параметр GMC формата : Без точки перехода
Параметр матрицы формата : Default (H.263)
Режим смешивания : Сжатый битовый поток
Идентификатор кодека : XVID
Идентификатор кодека/Подсказка : XviD
Продолжительность : 1 ч. 36 м.
Битрейт : 2100 Кбит/сек
Ширина : 720 пикселей
Высота : 400 пикселей
Соотношение сторон : 16:9
Частота кадров : 25,000 кадров/сек
Цветовое пространство : YUV
Субдискретизация насыщенности : 4:2:0
Битовая глубина : 8 бит
Тип развёртки : Прогрессивная
Метод сжатия : С потерями
Бит/(Пиксели*Кадры) : 0.292
Размер потока : 1,41 Гбайт (91%)
Библиотека кодирования : XviD 1.2.1 (UTC 2008-12-04)

Аудио
Идентификатор : 1
Формат : MPEG Audio
Версия формата : Version 1
Профиль формата : Layer 3
Идентификатор кодека : 55
Идентификатор кодека/Подсказка : MP3
Продолжительность : 1 ч. 36 м.
Вид битрейта : Постоянный
Битрейт : 192 Кбит/сек
Каналы : 2 канала
Частота : 48,0 КГц
Метод сжатия : С потерями
Размер потока : 132 Мбайт (8%)
Выравнивание : Соединение по промежуткам
Продолжительность промежутка : 40 мс. (1,00 видеокадр)
Время предзагрузки промежутка : 504 мс.
Библиотека кодирования : LAME3.99r
Настройки программы : -m s -V 4 -q 2 -lowpass 18.6 -b 192


Discovery Atlas: Япония / Discovery Atlas: Japan Revealed



Год выпуска: 2006
Страна: США
Жанр: Документальный
Продолжительность: 52 м.

Режиссер: Ричард Брэдли

Описание: На самом краю земли, к востоку от азиатского континента, располагается Япония - страна Восходящего солнца. Эта страна контрастов, окруженная со всех сторон океаном, полна тайн и загадок. Традиции древности и прогрессивные идеи существуют здесь бок о бок, дополняя друг друга и формируя будущее японцев. Жизненный цикл этого уникального мира определяется временами года. Мы попробуем проникнуть в секреты этой замечательной нации, пристально взглянув на её людей. И, возможно, их глаза покажут нам душу самой Японии.

Качество: DVDRip
Формат:AVI
Видео кодек: XviD
Аудио кодек: MP3
Видео: 16:9, 2100 Кбит/сек, 720x400, 25,000 кадров/сек
Аудио: MP3, 2 канала, 192 Кбит/сек, 48,0 КГц



Общее
Полное имя : D:Discovery Atlas�4 Japan.avi
Формат : AVI
Формат/Информация : Audio Video Interleave
Размер файла : 865 Мбайт
Продолжительность : 52 м.
Общий поток : 2301 Кбит/сек
Программа кодирования : VirtualDubMod 1.5.10.3 | www.virtualdub-fr.org || (build 2550/release)
Библиотека кодирования : VirtualDubMod build 2550/release

Видео
Идентификатор : 0
Формат : MPEG-4 Visual
Профиль формата : Advanced Simple@L5
Параметр BVOP формата : 2
Параметр QPel формата : Нет
Параметр GMC формата : Без точки перехода
Параметр матрицы формата : Default (H.263)
Режим смешивания : Сжатый битовый поток
Идентификатор кодека : XVID
Идентификатор кодека/Подсказка : XviD
Продолжительность : 52 м.
Битрейт : 2100 Кбит/сек
Ширина : 720 пикселей
Высота : 400 пикселей
Соотношение сторон : 16:9
Частота кадров : 25,000 кадров/сек
Цветовое пространство : YUV
Субдискретизация насыщенности : 4:2:0
Битовая глубина : 8 бит
Тип развёртки : Прогрессивная
Метод сжатия : С потерями
Бит/(Пиксели*Кадры) : 0.292
Размер потока : 789 Мбайт (91%)
Библиотека кодирования : XviD 1.2.1 (UTC 2008-12-04)

Аудио
Идентификатор : 1
Формат : MPEG Audio
Версия формата : Version 1
Профиль формата : Layer 3
Идентификатор кодека : 55
Идентификатор кодека/Подсказка : MP3
Продолжительность : 52 м.
Вид битрейта : Постоянный
Битрейт : 192 Кбит/сек
Каналы : 2 канала
Частота : 48,0 КГц
Метод сжатия : С потерями
Размер потока : 72,2 Мбайт (8%)
Выравнивание : Соединение по промежуткам
Продолжительность промежутка : 40 мс. (1,00 видеокадр)
Время предзагрузки промежутка : 504 мс.
Библиотека кодирования : LAME3.99r
Настройки программы : -m s -V 4 -q 2 -lowpass 18.6 -b 192


Discovery Atlas: Франция / Discovery Atlas: France Revealed



Год выпуска: 2007
Страна: США
Жанр: Документальный
Продолжительность: 43 м.

Режиссер: Тоби МакДональд

Описание: Добро пожаловать в страну прекрасного вкуса! В страну, где жизнь сама по себе вид искусства. Страну, в которой легко любить, где еда и напитки, история и традиции воспринимаются всерьез. Добро пожаловать во Францию - колыбель революций и перемен! Франция издавна являлась интеллектуальным и эмоциональным сердцем Европы. Это мозг и сердце континента. Но на переднем крае не только Париж. По всей стране новое поколение меняет наше представление о том, что принято считать французским. К востоку от Альп шеф-повар Марк Вейра вносит радикальные изменения в кулинарию; на юго-западе матадор Кристоф Кларион подвергает сомнению традиции, а вместе с ними древний подход к жизни и смерти; а на другом конце страны скалолаз Ален Робер бросает вызов гражданскому праву, равно как и законам силы тяжести. Истинные французы и француженки всегда находятся в авангарде сегодняшних бесчисленных революций, и с ними грядет новая Франция. Взгляните на них, и вы это поймете!

Качество: DVDRip
Формат:AVI
Видео кодек: XviD
Аудио кодек: MP3
Видео: 16:9, 2100 Кбит/сек, 720x400, 25,000 кадров/сек
Аудио: MP3, 2 канала, 192 Кбит/сек, 48,0 КГц



Общее
Полное имя : D:Discovery Atlas�5 France.avi
Формат : AVI
Формат/Информация : Audio Video Interleave
Размер файла : 716 Мбайт
Продолжительность : 43 м.
Общий поток : 2301 Кбит/сек
Программа кодирования : VirtualDubMod 1.5.10.3 | www.virtualdub-fr.org || (build 2550/release)
Библиотека кодирования : VirtualDubMod build 2550/release

Видео
Идентификатор : 0
Формат : MPEG-4 Visual
Профиль формата : Advanced Simple@L5
Параметр BVOP формата : 2
Параметр QPel формата : Нет
Параметр GMC формата : Без точки перехода
Параметр матрицы формата : Default (H.263)
Режим смешивания : Сжатый битовый поток
Идентификатор кодека : XVID
Идентификатор кодека/Подсказка : XviD
Продолжительность : 43 м.
Битрейт : 2100 Кбит/сек
Ширина : 720 пикселей
Высота : 400 пикселей
Соотношение сторон : 16:9
Частота кадров : 25,000 кадров/сек
Цветовое пространство : YUV
Субдискретизация насыщенности : 4:2:0
Битовая глубина : 8 бит
Тип развёртки : Прогрессивная
Метод сжатия : С потерями
Бит/(Пиксели*Кадры) : 0.292
Размер потока : 653 Мбайт (91%)
Библиотека кодирования : XviD 1.2.1 (UTC 2008-12-04)

Аудио
Идентификатор : 1
Формат : MPEG Audio
Версия формата : Version 1
Профиль формата : Layer 3
Идентификатор кодека : 55
Идентификатор кодека/Подсказка : MP3
Продолжительность : 43 м.
Вид битрейта : Постоянный
Битрейт : 192 Кбит/сек
Каналы : 2 канала
Частота : 48,0 КГц
Метод сжатия : С потерями
Размер потока : 59,7 Мбайт (8%)
Выравнивание : Соединение по промежуткам
Продолжительность промежутка : 40 мс. (1,00 видеокадр)
Время предзагрузки промежутка : 504 мс.
Библиотека кодирования : LAME3.99r
Настройки программы : -m s -V 4 -q 2 -lowpass 18.6 -b 192


Discovery Atlas: Индия / Discovery Atlas: India Revealed



Год выпуска: 2007
Страна: США
Жанр: Документальный
Продолжительность: 1 ч. 38 м.

Режиссер: Ричард Брэдли

Описание: Индия - древняя и удивительная страна, поражающая своей мистической красотой. Экономика Индии, одна из самых быстроразвивающихся на планете и возможный претендент на мировое лидерство в недалеком будущем. Но несмотря на это, Индия остается государством с тысячелетними традициями. Это земля невероятно религиозного народа и загадочных ритуалов. Страна, где зародился индуизм и буддизм, где мирно сосуществуют последователи множества разнообразных религий. Этот фильм расскажет о простых и в то же время таких сложных и непонятных людях - индийцах. Об их проблемах, мечтах и о надеждах на будущее.

Качество: DVDRip
Формат:AVI
Видео кодек: XviD
Аудио кодек: MP3
Видео: 16:9, 2100 Кбит/сек, 720x400, 25,000 кадров/сек
Аудио: MP3, 2 канала, 192 Кбит/сек, 48,0 КГц



Общее
Полное имя : D:Discovery Atlas�6 India.avi
Формат : AVI
Формат/Информация : Audio Video Interleave
Размер файла : 1,58 Гбайт
Продолжительность : 1 ч. 38 м.
Общий поток : 2302 Кбит/сек
Программа кодирования : VirtualDubMod 1.5.10.3 | www.virtualdub-fr.org || (build 2550/release)
Библиотека кодирования : VirtualDubMod build 2550/release

Видео
Идентификатор : 0
Формат : MPEG-4 Visual
Профиль формата : Advanced Simple@L5
Параметр BVOP формата : 2
Параметр QPel формата : Нет
Параметр GMC формата : Без точки перехода
Параметр матрицы формата : Default (H.263)
Режим смешивания : Сжатый битовый поток
Идентификатор кодека : XVID
Идентификатор кодека/Подсказка : XviD
Продолжительность : 1 ч. 38 м.
Битрейт : 2100 Кбит/сек
Ширина : 720 пикселей
Высота : 400 пикселей
Соотношение сторон : 16:9
Частота кадров : 25,000 кадров/сек
Цветовое пространство : YUV
Субдискретизация насыщенности : 4:2:0
Битовая глубина : 8 бит
Тип развёртки : Прогрессивная
Метод сжатия : С потерями
Бит/(Пиксели*Кадры) : 0.292
Размер потока : 1,44 Гбайт (91%)
Библиотека кодирования : XviD 1.2.1 (UTC 2008-12-04)

Аудио
Идентификатор : 1
Формат : MPEG Audio
Версия формата : Version 1
Профиль формата : Layer 3
Идентификатор кодека : 55
Идентификатор кодека/Подсказка : MP3
Продолжительность : 1 ч. 38 м.
Вид битрейта : Постоянный
Битрейт : 192 Кбит/сек
Каналы : 2 канала
Частота : 48,0 КГц
Метод сжатия : С потерями
Размер потока : 135 Мбайт (8%)
Выравнивание : Соединение по промежуткам
Продолжительность промежутка : 40 мс. (1,00 видеокадр)
Время предзагрузки промежутка : 504 мс.
Библиотека кодирования : LAME3.99r
Настройки программы : -m s -V 4 -q 2 -lowpass 18.6 -b 192


Discovery Atlas: Италия / Discovery Atlas: Italy Revealed



Год выпуска: 2007
Страна: США
Жанр: Документальный
Продолжительность: 1 ч. 40 м.

Режиссер: Майкл Линч

Описание: Италия - земля яркого солнца, страстных людей и безудержного веселья. Земля цезарей и римских пап. Земля вдохновения и красоты. Италия - это культура, искусство возрождения, непревзойденная скульптура и архитектура. Рим, Венеция, Флоренция...
Современная Италия XXI века, где прошлое и настоящее, сталкиваясь друг с другом создают будущее. Известный на весь мир завод Феррари в Маранелло, модные ателье Рима и многое другое. Две с половиной тысячи лет исторического наследия, живущие в каждом итальянском сердце, ждут всех желающих окунутся в атмосферу непревзойденной Италии - королевы истинного праздника стиля.
Ведущая программы - актриса Изабелла Росселлини - дочь знаменитого режиссера Роберто Росселлини и актрисы Ингрид Бергман.

Качество: DVDRip
Формат:AVI
Видео кодек: XviD
Аудио кодек: MP3
Видео: 16:9, 2100 Кбит/сек, 720x400, 25,000 кадров/сек
Аудио: MP3, 2 канала, 192 Кбит/сек, 48,0 КГц



Общее
Полное имя : D:Discovery Atlas�7 Italy.avi
Формат : AVI
Формат/Информация : Audio Video Interleave
Размер файла : 1,61 Гбайт
Продолжительность : 1 ч. 40 м.
Общий поток : 2301 Кбит/сек
Программа кодирования : VirtualDubMod 1.5.10.3 | www.virtualdub-fr.org || (build 2550/release)
Библиотека кодирования : VirtualDubMod build 2550/release

Видео
Идентификатор : 0
Формат : MPEG-4 Visual
Профиль формата : Advanced Simple@L5
Параметр BVOP формата : 2
Параметр QPel формата : Нет
Параметр GMC формата : Без точки перехода
Параметр матрицы формата : Default (H.263)
Режим смешивания : Сжатый битовый поток
Идентификатор кодека : XVID
Идентификатор кодека/Подсказка : XviD
Продолжительность : 1 ч. 40 м.
Битрейт : 2100 Кбит/сек
Ширина : 720 пикселей
Высота : 400 пикселей
Соотношение сторон : 16:9
Частота кадров : 25,000 кадров/сек
Цветовое пространство : YUV
Субдискретизация насыщенности : 4:2:0
Битовая глубина : 8 бит
Тип развёртки : Прогрессивная
Метод сжатия : С потерями
Бит/(Пиксели*Кадры) : 0.292
Размер потока : 1,47 Гбайт (91%)
Библиотека кодирования : XviD 1.2.1 (UTC 2008-12-04)

Аудио
Идентификатор : 1
Формат : MPEG Audio
Версия формата : Version 1
Профиль формата : Layer 3
Идентификатор кодека : 55
Идентификатор кодека/Подсказка : MP3
Продолжительность : 1 ч. 40 м.
Вид битрейта : Постоянный
Битрейт : 192 Кбит/сек
Каналы : 2 канала
Частота : 48,0 КГц
Метод сжатия : С потерями
Размер потока : 137 Мбайт (8%)
Выравнивание : Соединение по промежуткам
Продолжительность промежутка : 40 мс. (1,00 видеокадр)
Время предзагрузки промежутка : 504 мс.
Библиотека кодирования : LAME3.99r
Настройки программы : -m s -V 4 -q 2 -lowpass 18.6 -b 192


Discovery Atlas: Мексика / Discovery Atlas: Mexico Revealed



Год выпуска: 2007
Страна: США
Жанр: Документальный
Продолжительность: 1 ч. 27 м.

Режиссер: Роберто Эриксон

Описание: Мексика - колыбель древнейшей и самой развитой цивилизации Америки. Страна, разделенная завоевателями и объединенная революцией. Народ, опорой которому служили ритуалы и традиции. Край, утопающий в красках - от сверкающего Карибского моря до плодородных земель Синалоа. Место, где сталкиваются древность и современность, и где традиции постоянно претерпевают изменения. 110 миллионов человек, 140 языков и наречий, и один единственный голос - голос Мексики. Мы узнаем истории нескольких мексиканцев, судьбы которых откроют нам страну, смотрящую в будущее, но своими корнями уходящую глубоко в прошлoе.

Качество: DVDRip
Формат:AVI
Видео кодек: XviD
Аудио кодек: MP3
Видео: 16:9, 2100 Кбит/сек, 720x400, 25,000 кадров/сек
Аудио: MP3, 2 канала, 192 Кбит/сек, 48,0 КГц



Общее
Полное имя : D:Discovery Atlas�8 Mexico.avi
Формат : AVI
Формат/Информация : Audio Video Interleave
Размер файла : 1,41 Гбайт
Продолжительность : 1 ч. 27 м.
Общий поток : 2301 Кбит/сек
Программа кодирования : VirtualDubMod 1.5.10.3 | www.virtualdub-fr.org || (build 2550/release)
Библиотека кодирования : VirtualDubMod build 2550/release

Видео
Идентификатор : 0
Формат : MPEG-4 Visual
Профиль формата : Advanced Simple@L5
Параметр BVOP формата : 2
Параметр QPel формата : Нет
Параметр GMC формата : Без точки перехода
Параметр матрицы формата : Default (H.263)
Режим смешивания : Сжатый битовый поток
Идентификатор кодека : XVID
Идентификатор кодека/Подсказка : XviD
Продолжительность : 1 ч. 27 м.
Битрейт : 2100 Кбит/сек
Ширина : 720 пикселей
Высота : 400 пикселей
Соотношение сторон : 16:9
Частота кадров : 25,000 кадров/сек
Цветовое пространство : YUV
Субдискретизация насыщенности : 4:2:0
Битовая глубина : 8 бит
Тип развёртки : Прогрессивная
Метод сжатия : С потерями
Бит/(Пиксели*Кадры) : 0.292
Размер потока : 1,28 Гбайт (91%)
Библиотека кодирования : XviD 1.2.1 (UTC 2008-12-04)

Аудио
Идентификатор : 1
Формат : MPEG Audio
Версия формата : Version 1
Профиль формата : Layer 3
Идентификатор кодека : 55
Идентификатор кодека/Подсказка : MP3
Продолжительность : 1 ч. 27 м.
Вид битрейта : Постоянный
Битрейт : 192 Кбит/сек
Каналы : 2 канала
Частота : 48,0 КГц
Метод сжатия : С потерями
Размер потока : 120 Мбайт (8%)
Выравнивание : Соединение по промежуткам
Продолжительность промежутка : 40 мс. (1,00 видеокадр)
Время предзагрузки промежутка : 504 мс.
Библиотека кодирования : LAME3.99r
Настройки программы : -m s -V 4 -q 2 -lowpass 18.6 -b 192


Discovery Atlas: Бразилия / Discovery Atlas: Brazil Revealed



Год выпуска: 2007
Страна: США
Жанр: Документальный
Продолжительность: 1 ч. 37 м.

Режиссер: Грэм Бут

Описание: Добро пожаловать в увлекательное путешествие по Бразилии - одной из самых потрясающих стран мира! Бразилия - самая большая и самая яркая страна Южной Америки, полная энергии и веселья. Жизнь здесь похожа на праздник, здесь вы не встретите грустных лиц. Главные герои этой истории - люди. Несмотря на все проблемы, бразильцы - невероятно веселая нация. Непринужденные, полные энтузиазма и энергии, они живут полной жизнью. Вас ждет рассказ о девяти бразильцах. Все они отличаются по своему происхождению и образу жизни, но их объединяет одно - главный закон Бразилии: "Лови момент!". Вы узнаете, какую роль сыграла история, география, культура, религия и окружающая среда в формировании этой уникальной страны.

Качество: DVDRip
Формат:AVI
Видео кодек: XviD
Аудио кодек: MP3
Видео: 16:9, 2115 Кбит/сек, 720x400, 25,000 кадров/сек
Аудио: MP3, 2 канала, 192 Кбит/сек, 48,0 КГц



Общее
Полное имя : D:Discovery Atlas�9 Brazil.avi
Формат : AVI
Формат/Информация : Audio Video Interleave
Размер файла : 1,57 Гбайт
Продолжительность : 1 ч. 37 м.
Общий поток : 2317 Кбит/сек
Программа кодирования : VirtualDubMod 1.5.10.3 | www.virtualdub-fr.org || (build 2550/release)
Библиотека кодирования : VirtualDubMod build 2550/release

Видео
Идентификатор : 0
Формат : MPEG-4 Visual
Профиль формата : Advanced Simple@L5
Параметр BVOP формата : 2
Параметр QPel формата : Нет
Параметр GMC формата : Без точки перехода
Параметр матрицы формата : Default (MPEG)
Идентификатор кодека : XVID
Идентификатор кодека/Подсказка : XviD
Продолжительность : 1 ч. 37 м.
Битрейт : 2115 Кбит/сек
Ширина : 720 пикселей
Высота : 400 пикселей
Соотношение сторон : 16:9
Частота кадров : 25,000 кадров/сек
Цветовое пространство : YUV
Субдискретизация насыщенности : 4:2:0
Битовая глубина : 8 бит
Тип развёртки : Прогрессивная
Метод сжатия : С потерями
Бит/(Пиксели*Кадры) : 0.294
Размер потока : 1,44 Гбайт (91%)
Библиотека кодирования : XviD 1.2.1 (UTC 2008-12-04)

Аудио
Идентификатор : 1
Формат : MPEG Audio
Версия формата : Version 1
Профиль формата : Layer 3
Идентификатор кодека : 55
Идентификатор кодека/Подсказка : MP3
Продолжительность : 1 ч. 37 м.
Вид битрейта : Постоянный
Битрейт : 192 Кбит/сек
Каналы : 2 канала
Частота : 48,0 КГц
Метод сжатия : С потерями
Размер потока : 133 Мбайт (8%)
Выравнивание : Соединение по промежуткам
Продолжительность промежутка : 40 мс. (1,00 видеокадр)
Время предзагрузки промежутка : 504 мс.
Библиотека кодирования : LAME3.99r
Настройки программы : -m s -V 4 -q 2 -lowpass 18.6 -b 192


Discovery Atlas: Южная Африка / Discovery Atlas: South Africa Revealed



Год выпуска: 2007
Страна: США
Жанр: Документальный
Продолжительность: 1 ч. 38 м.

Режиссер: Ник Янг

Описание: Южную Африку по праву можно считать колыбелью человечества. Но в наши дни это уже не только загадочная экзотическая земля - это новая демократическая страна. Страна поразительных контрастов и ошеломляющего разнообразия жизни. Здесь проживает 47 миллионов человек, говорящих на одиннадцати языках. Здесь находятся одни из самых динамичных городов на свете. Это страна древних обычаев и удивительных ритуалов.
Отправляясь вместе с нами в путешествие, вы услышите потрясающий рассказ о рождении нации, о том, как в таком разобщенном государстве могла возникнуть демократия. Смогут ли бывшие враги жить вместе? И каковы их надежды на будущее?
Это рассказ об удивительном преображении страны. И людей, в ней живущих. Это рассказ о жизни в Стране Радуги.

Качество: DVDRip
Формат:AVI
Видео кодек: XviD
Аудио кодек: MP3
Видео: 16:9, 2100 Кбит/сек, 720x400, 25,000 кадров/сек
Аудио: MP3, 2 канала, 192 Кбит/сек, 48,0 КГц



Общее
Полное имя : D:Discovery Atlas�10 Africa.avi
Формат : AVI
Формат/Информация : Audio Video Interleave
Размер файла : 1,59 Гбайт
Продолжительность : 1 ч. 38 м.
Общий поток : 2301 Кбит/сек
Программа кодирования : VirtualDubMod 1.5.10.3 | www.virtualdub-fr.org || (build 2550/release)
Библиотека кодирования : VirtualDubMod build 2550/release

Видео
Идентификатор : 0
Формат : MPEG-4 Visual
Профиль формата : Advanced Simple@L5
Параметр BVOP формата : 2
Параметр QPel формата : Нет
Параметр GMC формата : Без точки перехода
Параметр матрицы формата : Default (H.263)
Режим смешивания : Сжатый битовый поток
Идентификатор кодека : XVID
Идентификатор кодека/Подсказка : XviD
Продолжительность : 1 ч. 38 м.
Битрейт : 2100 Кбит/сек
Ширина : 720 пикселей
Высота : 400 пикселей
Соотношение сторон : 16:9
Частота кадров : 25,000 кадров/сек
Цветовое пространство : YUV
Субдискретизация насыщенности : 4:2:0
Битовая глубина : 8 бит
Тип развёртки : Прогрессивная
Метод сжатия : С потерями
Бит/(Пиксели*Кадры) : 0.292
Размер потока : 1,45 Гбайт (91%)
Библиотека кодирования : XviD 1.2.1 (UTC 2008-12-04)

Аудио
Идентификатор : 1
Формат : MPEG Audio
Версия формата : Version 1
Профиль формата : Layer 3
Идентификатор кодека : 55
Идентификатор кодека/Подсказка : MP3
Продолжительность : 1 ч. 38 м.
Вид битрейта : Постоянный
Битрейт : 192 Кбит/сек
Каналы : 2 канала
Частота : 48,0 КГц
Метод сжатия : С потерями
Размер потока : 136 Мбайт (8%)
Выравнивание : Соединение по промежуткам
Продолжительность промежутка : 40 мс. (1,00 видеокадр)
Время предзагрузки промежутка : 504 мс.
Библиотека кодирования : LAME3.99r
Настройки программы : -m s -V 4 -q 2 -lowpass 18.6 -b 192


Релиз от: R.G.RealMT



   Похожие торренты   Торрент   Размер 
В этой теме нет новых непрочитанных сообщений. Discovery: Атлас тела / Discovery: Body Atlas [01-10] (1994) DVDRip

66 | 2

2.18 ГБ

В этой теме нет новых непрочитанных сообщений. Discovery Atlas: Южная Африка / Discovery Atlas: South Africa Revealed (2006) DVDRip от SilverCinema

2 | 2

1.34 ГБ

В этой теме нет новых непрочитанных сообщений. Discovery Atlas: Россия / Discovery Atlas: Russia Revealed (2006) DVDRip от SilverCinema

12 | 3

1.28 ГБ

В этой теме нет новых непрочитанных сообщений. Discovery Atlas: Япония / Discovery Atlas: Japan Revealed (2006) DVDRip от SilverCinema

17 | 5

601.48 МБ

В этой теме нет новых непрочитанных сообщений. Discovery Atlas: Австралия / Discovery Atlas: Australia Revealed (2006) DVDRip от SilverCinema

39 | 49

1.34 ГБ

В этой теме нет новых непрочитанных сообщений. Discovery Atlas: Франция / Discovery Atlas: France Revealed (2007) DVDRip от SilverCinema

18 | 10

498.57 МБ

В этой теме нет новых непрочитанных сообщений. Discovery Atlas: Мексика / Discovery Atlas: Mexico Revealed (2007) DVDRip от SilverCinema

2 | 18

1.17 ГБ




Вы не можете начинать темы
Вы не можете отвечать на сообщения
Вы не можете редактировать свои сообщения
Вы не можете удалять свои сообщения
Вы не можете добавлять вложения

Перейти:  
Для Мосгорсуда, Роскомнадзора и рекламодателей: mosgorsud-torrent[собачка]yandex.ru
 Вход
ppkBB3cker v.2 © 2008-2014 @ PPK
[ Time : 4.479s | 15 Queries | GZIP : Off ]

Торрент трекер RUTOR.IN, Не можете зайти на rutor.org? Какой новый адрес рутор? Какое зеркало рутор? Не работает rutor.org и зеркала? Тогда наш торрент специально для вас. Rutor.in неофициальное зеркало rutor. В случае если у Вас заблокирован rutor или вдруг Вы не можете на него зайти, то Вы без труда сможете скачать бесплатно и без рекламы последние новинки кино, игр, сериалов и прочего у нас, на Rutor.in. Не нужно использовать прокси, чтобы зайти на рутор, достаточно воспользоваться нашим ресурсом. Все новые фильмы, игры, сериалы, книги и музыка за 2013 и 2014 годы через торрент бесплатно. Скачивайте фильмы в хорошем качестве, игры для пк, xbox, playstation без регистрации. У нас вы найдете новые Зарубежные сериалы и Русские сериалы 2013, 2014, 2015 годов. Оставайтесь с нами, качайте любимые фильмы, игры, сериалы, книги и музыку.
cron