img image001 image001 image001 image001 image001 image001 image001 image001 image001 image001 image001 image001 image001 image001 image001

Planets Sun Sun Sun
Статистика раздачи
Автор: Снежана | Размер: 2.18 ГБ | Добавлен: 25 июл 2013
Раздают: 5    Качают: 2
Скачать торрент
Скачать торрент
Описание торрента

СообщениеДобавлено: 25 июл 2013 

#77

Информация о фильме
Название: Планета-океан
Оригинальное название: Planet Ocean
Год выхода: 2012
Жанр: Документальный, научно-познавательный, природа, путешествие, исследование
Режиссер: Ян Артус Бертранд, Мишель Питио
Сюжет фильма:

Можно ли представить себе фильм, способный изменить взгляд, которым люди смотрят на океан? Можем ли просто объяснить всем самую большую природную тайну нашей планеты? И, наконец, есть ли способ помочь нашим детям верить в лучший и более жизнеспособный мир завтра? Ответ на все эти три вопроса – документальный фильм «Планета-океан»




Выпущено: Франция, Omega Watches
Продолжительность: 01:29:14
Перевод: Авторский одноголосый Владимир Курдов
Субтитры: Русские

Файл
Качество: BDRip 720p (исходник Blu-ray Disc)
Видео: 1280x720, 3 133 Кбит/сек, 25.000 кадр/сек, AVC, x264, 16:9, 0.136 Бит/(Пиксели*Кадры), 2-pass
Аудио: AC-3, 384 Кбит/сек, 6 канала(ов), 48,0 КГц
Чаптеры: нет
Семпл




Format : Matroska
Format version : Version 4 / Version 2
File size : 2.18 GiB
Duration : 1h 28mn
Overall bit rate : 3 516 Kbps
Movie name : Планета-океан.(2012).BDRip.720p.NoLimits-Team
Encoded date : UTC 2013-03-06 07:24:15
Writing application : mkvmerge v6.1.0 ('Old Devil') built on Mar 2 2013 14:32:37
Writing library : libebml v1.3.0 + libmatroska v1.4.0

Video
ID : 1
Format : AVC
Format/Info : Advanced Video Codec
Format profile : High@L4.1
Format settings, CABAC : Yes
Format settings, ReFrames : 9 frames
Codec ID : V_MPEG4/ISO/AVC
Duration : 1h 28mn
Bit rate : 3 133 Kbps
Width : 1 280 pixels
Height : 720 pixels
Display aspect ratio : 16:9
Frame rate mode : Constant
Frame rate : 25.000 fps
Color space : YUV
Chroma subsampling : 4:2:0
Bit depth : 8 bits
Scan type : Progressive
Bits/(Pixel*Frame) : 0.136
Stream size : 1.90 GiB (87%)
Title : Планета-океан.(2012).BDRip.720p.NoLimits-Team
Writing library : x264 core 130 r2273 b3065e6
Encoding settings : cabac=1 / ref=9 / deblock=1:-3:-3 / analyse=0x3:0x113 / me=umh / subme=11 / psy=1 / psy_rd=1.00:0.10 / mixed_ref=1 / me_range=32 / chroma_me=1 / trellis=2 / 8x8dct=1 / cqm=0 / deadzone=21,11 / fast_pskip=0 / chroma_qp_offset=-3 / threads=6 / lookahead_threads=1 / sliced_threads=0 / nr=0 / decimate=0 / interlaced=0 / bluray_compat=0 / constrained_intra=0 / bframes=8 / b_pyramid=2 / b_adapt=2 / b_bias=0 / direct=3 / weightb=1 / open_gop=0 / weightp=2 / keyint=250 / keyint_min=25 / scenecut=40 / intra_refresh=0 / rc_lookahead=60 / rc=2pass / mbtree=1 / bitrate=3133 / ratetol=1.0 / qcomp=0.60 / qpmin=0 / qpmax=51 / qpstep=4 / cplxblur=20.0 / qblur=0.5 / ip_ratio=1.40 / aq=1:1.00
Language : English
Default : Yes
Forced : No

Audio
ID : 2
Format : AC-3
Format/Info : Audio Coding 3
Mode extension : CM (complete main)
Format settings, Endianness : Big
Codec ID : A_AC3
Duration : 1h 28mn
Bit rate mode : Constant
Bit rate : 384 Kbps
Channel(s) : 6 channels
Channel positions : Front: L C R, Side: L R, LFE
Sampling rate : 48.0 KHz
Bit depth : 16 bits
Compression mode : Lossy
Stream size : 244 MiB (11%)
Title : Авторский одноголосый Владимир Курдов
Language : Russian
Default : Yes
Forced : No

Text
ID : 3
Format : UTF-8
Codec ID : S_TEXT/UTF8
Codec ID/Info : UTF-8 Plain Text
Title : Русские
Language : Russian
Default : No
Forced : No


Релиз Группа | Автор Рипа:



   Похожие торренты   Торрент   Размер 
В этой теме нет новых непрочитанных сообщений. Планета-океан / Planet Ocean (2012) BDRip 1080p от NoLimits-Team

58 | 6

4.37 ГБ

В этой теме нет новых непрочитанных сообщений. Планета-океан / Planet Ocean (2012) DVD9 R5 от New-team | D | лицензия

25 | 5

5.69 ГБ

В этой теме нет новых непрочитанных сообщений. Планета-океан / Planet Ocean (2012) BDRip 720p | Лицензия

8 | 2

6.74 ГБ

В этой теме нет новых непрочитанных сообщений. Планета-океан / Planet Ocean (2012) BDRip 720p от HQCLUB | Лицензия

120 | 7

4.7 ГБ

В этой теме нет новых непрочитанных сообщений. Планета-океан / Planet Ocean (2012) BDRip от HQCLUB | Лицензия

77 | 5

1.47 ГБ

В этой теме нет новых непрочитанных сообщений. Планета-океан / Planet Ocean (2012) BDRip 1080p от Youtracker | Лицензия

14 | 5

9.59 ГБ

В этой теме нет новых непрочитанных сообщений. Планета-океан / Planet Ocean (2012) HDRip

12 | 1

706.1 МБ




Вы не можете начинать темы
Вы не можете отвечать на сообщения
Вы не можете редактировать свои сообщения
Вы не можете удалять свои сообщения
Вы не можете добавлять вложения

Перейти:  
Для Мосгорсуда, Роскомнадзора и рекламодателей: mosgorsud-torrent[собачка]yandex.ru
 Вход
ppkBB3cker v.2 © 2008-2014 @ PPK
[ Time : 0.034s | 14 Queries | GZIP : Off ]

Торрент трекер RUTOR.IN, Не можете зайти на rutor.org? Какой новый адрес рутор? Какое зеркало рутор? Не работает rutor.org и зеркала? Тогда наш торрент специально для вас. Rutor.in неофициальное зеркало rutor. В случае если у Вас заблокирован rutor или вдруг Вы не можете на него зайти, то Вы без труда сможете скачать бесплатно и без рекламы последние новинки кино, игр, сериалов и прочего у нас, на Rutor.in. Не нужно использовать прокси, чтобы зайти на рутор, достаточно воспользоваться нашим ресурсом. Все новые фильмы, игры, сериалы, книги и музыка за 2013 и 2014 годы через торрент бесплатно. Скачивайте фильмы в хорошем качестве, игры для пк, xbox, playstation без регистрации. У нас вы найдете новые Зарубежные сериалы и Русские сериалы 2013, 2014, 2015 годов. Оставайтесь с нами, качайте любимые фильмы, игры, сериалы, книги и музыку.