img image001 image001 image001 image001 image001 image001 image001 image001 image001 image001 image001 image001 image001 image001 image001

Planets Sun Sun Sun
Статистика раздачи
Автор: Снежана | Размер: 2.45 ГБ | Добавлен: 25 июл 2013
Раздают: 140    Качают: 8
Скачать торрент
Скачать торрент
Описание торрента

СообщениеДобавлено: 25 июл 2013 

#77

Название: Тайна горы мертвецов. Перевал Дятлова
Год выпуска: 2013
Жанр: Документальный
Выпущено: Россия
Режиссер: Максим Огечин

О фильме: В 1959 году группа молодых людей из Свердловска отправилась в лыжный переход по маршруту поселок Ивдель - поселок Вижай. Возглавлял группу Юрий Дятлов. Позже ее так и назовут "группа Дятлова". Протяженность маршрута должна была составить не менее 350 км. По критериям того времени переход можно было отнести к категории "особой сложности". В конце января 1959 года, вопреки ожиданиям родственников и близких, группа не вышла в намеченное время и в назначенное место. Первыми забили тревогу родственники. Именно они настояли на вылете к месту возможного исчезновения туристов группы спасателей. И уже через несколько дней у горы Холатчахль (в переводе с языка манси "Гора мертвецов") спасатели обнаруживают брошенную палатку, а позже тела первых троих погибших. Через несколько дней - еще двоих. Четверых последних обнаружат только в начале мая 1959 года. Уже с самых первых дней исследование тел погибших и характер обнаруженных ранений - а в ряде случаев, как установило следствие, именно они стали причиной гибели туристов, - порождают множество слухов о причинах их гибели. Уже в те дни по Свердловску гуляли самые невероятные версии: попали в зону испытаний нового оружия, убили беглые заключенные, охотники-манси и другие. Вскоре волну этих слухов подстегнула информация о том, что причины гибели людей не найдены, но все следственные действия прекращены, а дело закрыто. За годы, прошедшие с момента гибели "группы Дятлова", к тем версиям, которые родились в первые дни, прибавились новые. В рамках фильма исследованы наиболее популярные и упорно поддерживаемые многочисленными исследователями той трагедии...

Продолжительность: 02 х 00:43:00
Язык: Русский

Качество: HDTVRip 720р
Контейнер: MKV
Видео кодек: H.264
Видео: 1280x720 (16:9), 25.000 fps, 3850 Kbps, 0.167 bit/pixel
Аудио: МР2, 2 ch, 192 Кбит/сек

General
Unique ID : 251800509551797366996728942938567534083 (0xBD6F039E66FC3DF7B9317F2FF1A8E603)
Complete name : M:ВЫКЛАДКАHDTVДокументальныйТайна горы мертвецов. Перевал Дятлова (2013, Документальный, HDTVRip 720) (MYDIMKA)Фильм 01.mkv
Format : Matroska
Format version : Version 1
File size : 1.22 GiB
Duration : 43mn 14s
Overall bit rate : 4 052 Kbps
Encoded date : UTC 2013-03-07 07:50:22
Writing application : mkvmerge v2.4.0 ('Fumbling Towards Ecstasy') built on Oct 11 2008 20:13:15
Writing library : libebml v0.7.7 + libmatroska v0.8.1

Video
ID : 1
Format : AVC
Format/Info : Advanced Video Codec
Format profile : High@L4.1
Format settings, CABAC : Yes
Format settings, ReFrames : 3 frames
Codec ID : V_MPEG4/ISO/AVC
Duration : 43mn 14s
Bit rate : 3 850 Kbps
Width : 1 280 pixels
Height : 720 pixels
Display aspect ratio : 16:9
Frame rate mode : Constant
Frame rate : 25.000 fps
Color space : YUV
Chroma subsampling : 4:2:0
Bit depth : 8 bits
Scan type : MBAFF
Bits/(Pixel*Frame) : 0.167
Stream size : 1.14 GiB (93%)
Writing library : x264 core 65 r999kMod cc51047
Encoding settings : cabac=1 / ref=3 / deblock=1:0:0 / analyse=0x3:0x133 / me=umh / subme=6 / psy_rd=1.0:0.0 / mixed_ref=1 / me_range=16 / chroma_me=1 / trellis=1 / 8x8dct=1 / cqm=0 / deadzone=21,11 / chroma_qp_offset=-2 / threads=8 / thread_queue=8 / nr=0 / decimate=1 / mbaff=1 / bframes=3 / b_pyramid=1 / b_adapt=1 / b_bias=0 / direct=1 / wpredb=1 / keyint=250 / keyint_min=25 / scenecut=40(pre) / rc=abr / bitrate=3850 / ratetol=1.0 / qcomp=0.60 / qpmin=10 / qpmax=51 / qpstep=4 / ip_ratio=1.40 / pb_ratio=1.30 / aq=1:1.00
Default : Yes
Forced : No

Audio
ID : 2
Format : MPEG Audio
Format version : Version 1
Format profile : Layer 2
Codec ID : A_MPEG/L2
Codec ID/Hint : MP2
Duration : 43mn 14s
Bit rate mode : Constant
Bit rate : 192 Kbps
Channel(s) : 2 channels
Sampling rate : 48.0 KHz
Compression mode : Lossy
Stream size : 59.4 MiB (5%)
Default : Yes
Forced : No




Релиз от:



   Похожие торренты   Торрент   Размер 
В этой теме нет новых непрочитанных сообщений. Тайна горы мертвецов. Перевал Дятлова (2013) HDTVRip от Sanjar & NeoJet | КПК

104 | 2

262.21 МБ

В этой теме нет новых непрочитанных сообщений. Тайна горы мертвецов. Перевал Дятлова [01-02 из 02] (2013) DVB

69 | 3

1.54 ГБ

В этой теме нет новых непрочитанных сообщений. Тайна горы мертвецов. Перевал Дятлова [01-02 из 02] (2013) SATRip

15 | 6

1.06 ГБ

В этой теме нет новых непрочитанных сообщений. Тайна горы мертвецов. Перевал Дятлова [01-02 из 02] (2013) HDTV 1080i

2 | 2

5.1 ГБ

В этой теме нет новых непрочитанных сообщений. Перевал Дятлова. Тайна раскрыта (2015) SATRip от Generalfilm

1440 | 51

642.21 МБ

В этой теме нет новых непрочитанных сообщений. Перевал Дятлова. Отчислены по случаю смерти (2013) HDTVRip

86 | 5

633.39 МБ

В этой теме нет новых непрочитанных сообщений. Перевал Дятлова. Отчислены по случаю смерти (2013) HDTVRip

92 | 10

783.68 МБ




Вы не можете начинать темы
Вы не можете отвечать на сообщения
Вы не можете редактировать свои сообщения
Вы не можете удалять свои сообщения
Вы не можете добавлять вложения

Перейти:  
Для Мосгорсуда, Роскомнадзора и рекламодателей: mosgorsud-torrent[собачка]yandex.ru
 Вход
ppkBB3cker v.2 © 2008-2014 @ PPK
[ Time : 1.082s | 14 Queries | GZIP : Off ]

Торрент трекер RUTOR.IN, Не можете зайти на rutor.org? Какой новый адрес рутор? Какое зеркало рутор? Не работает rutor.org и зеркала? Тогда наш торрент специально для вас. Rutor.in неофициальное зеркало rutor. В случае если у Вас заблокирован rutor или вдруг Вы не можете на него зайти, то Вы без труда сможете скачать бесплатно и без рекламы последние новинки кино, игр, сериалов и прочего у нас, на Rutor.in. Не нужно использовать прокси, чтобы зайти на рутор, достаточно воспользоваться нашим ресурсом. Все новые фильмы, игры, сериалы, книги и музыка за 2013 и 2014 годы через торрент бесплатно. Скачивайте фильмы в хорошем качестве, игры для пк, xbox, playstation без регистрации. У нас вы найдете новые Зарубежные сериалы и Русские сериалы 2013, 2014, 2015 годов. Оставайтесь с нами, качайте любимые фильмы, игры, сериалы, книги и музыку.