img image001 image001 image001 image001 image001 image001 image001 image001 image001 image001 image001 image001 image001 image001 image001

Planets Sun Sun Sun
Статистика раздачи
Автор: Снежана | Размер: 894.85 МБ | Добавлен: 25 июл 2013
Раздают: 2    Качают: 3
Скачать торрент
Скачать торрент
Описание торрента

СообщениеДобавлено: 25 июл 2013 

Африка

Faszination Afrika


#77

Год выпуска: 2011
Страна: Австрия, Германия, Швейцария
Жанр: документальный
Продолжительность: 00:55:35
Перевод: Профессиональный (одноголосый закадровый)
Оригинальная аудиодорожка: английский
Субтитры: русские (srt)

Режиссеры: Бенжамин Ичер / Benjamin Eicher, Тимо Дж. Мэйер / Timo Joh. Mayer

Описание: Африка — колыбель человечества, сердце нашей Земли. Черный континент, где солнечные лучи проникают в землю почти вертикально. Поразительной красоты пейзажи, уникальная и разнообразная фауна, которая отлично приспособилась к условиям жизни на континенте. Растения, которые невозможно встретить нигде больше на нашей планете. Все это разнообразие природы в естественной среде захватывает дух.

Отправляйтесь с нами к солнцу побродить по бесконечным саваннам и понаблюдать за слонами и жирафами на водопое. Вы будете просто поражены львами, зебрами, гиппопотамами и многими другими животными, населяющими континент.



Качество: HDRip [BDRip 720p]
Формат: AVI

Видео: XviD, 720x400 (16:9), 23.976 fps, 1 473 Kbps, 0.213 Bits/(Pixel*Frame)
Аудио 1: AC3, 48 KHz, 384 Kbps, 6 channels | русский
Аудио 2: AC3, 48 KHz, 384 Kbps, 6 channels | английский отдельно
Субтитры: SRT | русские отдельно

Раздача от:
General
Complete name : D:Afrika.2011.HDRip.XviD.AC3.742mb.YTN.avi
Format : AVI
Format/Info : Audio Video Interleave
File size : 742 MiB
Duration : 55mn 35s
Overall bit rate : 1 866 Kbps
Writing application : VirtualDubMod 1.5.10.2 (build 2540/release)
Writing library : VirtualDubMod build 2540/release

Video
ID : 0
Format : MPEG-4 Visual
Format profile : Advanced Simple@L5
Format settings, BVOP : 1
Format settings, QPel : No
Format settings, GMC : No warppoints
Format settings, Matrix : Custom
Codec ID : XVID
Codec ID/Hint : XviD
Duration : 55mn 35s
Bit rate : 1 473 Kbps
Width : 720 pixels
Height : 400 pixels
Display aspect ratio : 16:9
Frame rate : 23.976 fps
Color space : YUV
Chroma subsampling : 4:2:0
Bit depth : 8 bits
Scan type : Progressive
Compression mode : Lossy
Bits/(Pixel*Frame) : 0.213
Stream size : 586 MiB (79%)
Writing library : XviD 65

Audio
ID : 1
Format : AC-3
Format/Info : Audio Coding 3
Mode extension : CM (complete main)
Codec ID : 2000
Duration : 55mn 35s
Bit rate mode : Constant
Bit rate : 384 Kbps
Channel(s) : 6 channels
Channel positions : Front: L C R, Side: L R, LFE
Sampling rate : 48.0 KHz
Bit depth : 16 bits
Compression mode : Lossy
Stream size : 153 MiB (21%)
Alignment : Split accross interleaves
Interleave, duration : 42 ms (1.00 video frame)
Interleave, preload duration : 500 ms




   Похожие торренты   Торрент   Размер 
В этой теме нет новых непрочитанных сообщений. Африка / Faszination Afrika (2011) DVD5 от Y.T.N

0 | 2

3.68 ГБ

В этой теме нет новых непрочитанных сообщений. Африка / Faszination Afrika (2011) Blu-Ray | 3D-Video

8 | 3

17.39 ГБ

В этой теме нет новых непрочитанных сообщений. Африка / Faszination Afrika (2011) BDRip 1080p | 3D-Video

18 | 4

5.52 ГБ

В этой теме нет новых непрочитанных сообщений. Африка / Faszination Afrika (2012) BDRip AVC

26 | 1

1.74 ГБ

В этой теме нет новых непрочитанных сообщений. Африка / Faszination Afrika (2012) BDRip 1080p

121 | 16

5.36 ГБ

В этой теме нет новых непрочитанных сообщений. Африка / Faszination Afrika (2012) BDRip 720p

25 | 1

2.48 ГБ

В этой теме нет новых непрочитанных сообщений. Коралловый риф / Faszination Korallenriff (2011) HDRip

1 | 1

690.65 МБ




Вы не можете начинать темы
Вы не можете отвечать на сообщения
Вы не можете редактировать свои сообщения
Вы не можете удалять свои сообщения
Вы не можете добавлять вложения

Перейти:  
Для Мосгорсуда, Роскомнадзора и рекламодателей: mosgorsud-torrent[собачка]yandex.ru
 Вход
ppkBB3cker v.2 © 2008-2014 @ PPK
[ Time : 0.081s | 14 Queries | GZIP : Off ]

Торрент трекер RUTOR.IN, Не можете зайти на rutor.org? Какой новый адрес рутор? Какое зеркало рутор? Не работает rutor.org и зеркала? Тогда наш торрент специально для вас. Rutor.in неофициальное зеркало rutor. В случае если у Вас заблокирован rutor или вдруг Вы не можете на него зайти, то Вы без труда сможете скачать бесплатно и без рекламы последние новинки кино, игр, сериалов и прочего у нас, на Rutor.in. Не нужно использовать прокси, чтобы зайти на рутор, достаточно воспользоваться нашим ресурсом. Все новые фильмы, игры, сериалы, книги и музыка за 2013 и 2014 годы через торрент бесплатно. Скачивайте фильмы в хорошем качестве, игры для пк, xbox, playstation без регистрации. У нас вы найдете новые Зарубежные сериалы и Русские сериалы 2013, 2014, 2015 годов. Оставайтесь с нами, качайте любимые фильмы, игры, сериалы, книги и музыку.