img image001 image001 image001 image001 image001 image001 image001 image001 image001 image001 image001 image001 image001 image001 image001

Planets Sun Sun Sun
Статистика раздачи
Автор: Снежана | Размер: 4.37 ГБ | Добавлен: 24 июл 2013, 18:55
Раздают: 72    Качают: 5
Скачать торрент
Скачать торрент
Описание торрента

СообщениеДобавлено: 24 июл 2013, 18:55 

#77

Информация о фильме
Название: Микрокосмос
Оригинальное название: Microcosmos: Le peuple de l'herbe
Год выхода: 1996
Жанр: документальный
Режиссер: Клод Нуридзани, Мари Перену
В ролях: Разные козявки

О фильме:
Полтора часа, проведенные на неизвестной планете, где все расстояния измеряются миллиметрами. Ее обитатели: фантастические создания, насекомые, улитки и прочие обитатели травы и воды. Ее пейзажи: непроходимые дебри травяных кущ, капли росы, огромные, как воздушные шары.

Зритель открывает для себя прекрасный, сияющий всеми красками радуги параллельный мир, где работают иные физические законы. Мир, залитый ирреальным светом, полный неведомых звуков. Страна, где животные умеют ходить по воде или разгуливать вниз головой.

Фазан, разгуливающий по муравьиной тропе производит на вас не меньшее впечатление, чем Годзилла из знаменитого триллера, а обычная летняя гроза заставляет вспомнить о воздушной атаке сотни тяжелых бомбардировщиков. Постоянные переходы из одного мира в другой дают ошеломленным зрителям почувствовать относительность наших представлений о пространстве.

Зритель ощущает себя крохотным десантником, заброшенным в самый эпицентр действия. Он слышит грохот муравьиных войн и рев пчелиных крыльев у себя за спиной.



Страна: Франция, Швейцария, Италия
Продолжительность: 01:15:25
Перевод: не требуется

Файл
Кодек: h.264
Качество: BDRip 1080p
Видео: 1792x1080, 7846 Kbps, 23.976 fps, 0.169 Bits/(Pixel*Frame)
Звук: AC3, 448 Kbps, 6 channels

Format : Matroska
Format version : Version 2
File size : 4.37 GiB
Duration : 1h 15mn
Overall bit rate : 8 286 Kbps
Encoded date : UTC 2013-03-09 23:17:40
Writing application : mkvmerge v5.6.0 ('Kenya Kane') built on May 27 2012 16:44:04
Writing library : libebml v1.2.3 + libmatroska v1.3.0

Video
ID : 1
Format : AVC
Format/Info : Advanced Video Codec
Format profile : High@L4.1
Format settings, CABAC : Yes
Format settings, ReFrames : 4 frames
Codec ID : V_MPEG4/ISO/AVC
Duration : 1h 15mn
Bit rate : 7 846 Kbps
Width : 1 792 pixels
Height : 1 080 pixels
Display aspect ratio : 1.659
Frame rate : 23.976 fps
Color space : YUV
Chroma subsampling : 4:2:0
Bit depth : 8 bits
Scan type : Progressive
Bits/(Pixel*Frame) : 0.169
Stream size : 4.04 GiB (93%)
Writing library : x264 core 129 r2230 1cffe9f
Encoding settings : cabac=1 / ref=4 / deblock=1:0:0 / analyse=0x3:0x133 / me=umh / subme=11 / psy=1 / psy_rd=1.00:0.00 / mixed_ref=1 / me_range=32 / chroma_me=1 / trellis=2 / 8x8dct=1 / cqm=0 / deadzone=21,11 / fast_pskip=0 / chroma_qp_offset=-2 / threads=9 / lookahead_threads=1 / sliced_threads=0 / nr=0 / decimate=1 / interlaced=0 / bluray_compat=0 / constrained_intra=0 / bframes=8 / b_pyramid=2 / b_adapt=2 / b_bias=0 / direct=3 / weightb=1 / open_gop=0 / weightp=2 / keyint=250 / keyint_min=23 / scenecut=40 / intra_refresh=0 / rc_lookahead=60 / rc=2pass / mbtree=1 / bitrate=7846 / ratetol=1.0 / qcomp=0.60 / qpmin=0 / qpmax=69 / qpstep=4 / cplxblur=20.0 / qblur=0.5 / ip_ratio=1.40 / aq=1:1.00
Language : English
Default : Yes
Forced : No

Audio
ID : 2
Format : AC-3
Format/Info : Audio Coding 3
Mode extension : CM (complete main)
Format settings, Endianness : Big
Codec ID : A_AC3
Duration : 1h 15mn
Bit rate mode : Constant
Bit rate : 448 Kbps
Channel(s) : 6 channels
Channel positions : Front: L C R, Side: L R, LFE
Sampling rate : 48.0 KHz
Bit depth : 16 bits
Compression mode : Lossy
Stream size : 242 MiB (5%)
Default : Yes
Forced : No


x264 [info]: frame I:601 Avg QP:22.25 size:183805
x264 [info]: frame P:21009 Avg QP:24.90 size: 73873
x264 [info]: frame B:86904 Avg QP:27.25 size: 31885





   Похожие торренты   Торрент   Размер 
В этой теме нет новых непрочитанных сообщений. Микрокосмос / Microcosmos: Le peuple de l'herbe (1996) BDRip от New-Team

23 | 12

1.46 ГБ

В этой теме нет новых непрочитанных сообщений. Микрокосмос / Microcosmos: Le peuple de l'herbe (1996) BDRip от New-Team

21 | 6

745.01 МБ

В этой теме нет новых непрочитанных сообщений. Микрокосмос / Microcosmos: Le peuple de l'herbe (1996) BDRip от HQCLUB

19 | 2

1.45 ГБ

В этой теме нет новых непрочитанных сообщений. Микрокосмос / Microcosmos: Le peuple de l'herbe (1996) BDRip от HQ-ViDEO

6 | 8

1.45 ГБ

В этой теме нет новых непрочитанных сообщений. Микрокосмос / Microcosmos: Le peuple de l'herbe (1996) BDRip-AVC от New-Team

76 | 9

1.46 ГБ

В этой теме нет новых непрочитанных сообщений. Микрокосмос / Microcosmos: Le peuple de l'herbe (1996) BDRip 720p от New-Team

122 | 10

2.91 ГБ

В этой теме нет новых непрочитанных сообщений. Микрокосмос / Microcosmos: Le peuple de l'herbe (1996) BDRip 720p от FreeHD

0 | 2

4.36 ГБ




Вы не можете начинать темы
Вы не можете отвечать на сообщения
Вы не можете редактировать свои сообщения
Вы не можете удалять свои сообщения
Вы не можете добавлять вложения

Перейти:  
Для Мосгорсуда, Роскомнадзора и рекламодателей: mosgorsud-torrent[собачка]yandex.ru
Настройки
ppkBB3cker v.2 © 2008-2014 @ PPK
[ Time : 0.077s | 16 Queries | GZIP : Off ]
CGP [Extreme] output time : 0.00072s | 0 Queries | GZIP : Off

Торрент трекер RUTOR.IN, Не можете зайти на rutor.org? Какой новый адрес рутор? Какое зеркало рутор? Не работает rutor.org и зеркала? Тогда наш торрент специально для вас. Rutor.in неофициальное зеркало rutor. В случае если у Вас заблокирован rutor или вдруг Вы не можете на него зайти, то Вы без труда сможете скачать бесплатно и без рекламы последние новинки кино, игр, сериалов и прочего у нас, на Rutor.in. Не нужно использовать прокси, чтобы зайти на рутор, достаточно воспользоваться нашим ресурсом. Все новые фильмы, игры, сериалы, книги и музыка за 2013 и 2014 годы через торрент бесплатно. Скачивайте фильмы в хорошем качестве, игры для пк, xbox, playstation без регистрации. У нас вы найдете новые Зарубежные сериалы и Русские сериалы 2013, 2014, 2015 годов. Оставайтесь с нами, качайте любимые фильмы, игры, сериалы, книги и музыку.