img image001 image001 image001 image001 image001 image001 image001 image001 image001 image001 image001 image001 image001 image001 image001

Planets Sun Sun Sun
Статистика раздачи
Автор: Снежана | Размер: 1.57 ГБ | Добавлен: 25 июл 2013
Раздают: 0    Качают: 6
Скачать торрент
Скачать торрент
Описание торрента

СообщениеДобавлено: 25 июл 2013 

#77

Год выпуска: 2009
Страна: Франция
Жанр: Документальный
Продолжительность: 01:37:26
Перевод: Одноголосый закадровый (В.Курдов)

Режиссер: Жан Альберт Левьер / Jean-Albert Lièvre

Описание: "Я не был экологом, когда начинал 30 лет тому назад, путешествовать во всем мире. Я увидел как наша планета уменьшилась перед моими глазами, я был беззаботным и убежден в бесконечном и незыблемом мире, в сознании неуязвимого и законченного мира. Но после путешествий всё изменилось... Уже почти 20 лет, я сражаюсь с другими за то чтобы информировать и главным образом мобилизовать всех в отношении угрозы миру. Сегодня, кино является существенной частью, чтобы каждый смог в свою очередь и во Франции и за границей, почувствовать угрозу и разделить мои чувства. Пусть каждый человек, смотрящий этот фильм сможет увидеть Землю и людей, такие, какие они есть и таких как я его увидел. Пусть Человек обнаружит свой собственный масштаб во времени и пространстве. Этот фильм - сигнал тревоги. Давайте не позволим времени продиктовать изменение нашей планеты, а также крик надежды, давайте мобилизуем человеческий талант, чтобы наконец дать смысл достижению..." Nicolas Hulot



Качество: HDRip
Формат:AVI
Видео кодек: XviD
Аудио кодек: MP3
Видео: 16:9, 2099 Кбит/сек, 720x400, 23,976 кадра/сек
Аудио: MP3, 2 канала, 192 Кбит/сек, 48,0 КГц



Общее
Полное имя : D:Le syndrome du Titanic(2009).avi
Формат : AVI
Формат/Информация : Audio Video Interleave
Размер файла : 1,57 Гбайт
Продолжительность : 1 ч. 37 м.
Общий поток : 2301 Кбит/сек
Программа кодирования : VirtualDubMod 1.5.10.3 | www.virtualdub-fr.org || (build 2550/release)
Библиотека кодирования : VirtualDubMod build 2550/release

Видео
Идентификатор : 0
Формат : MPEG-4 Visual
Профиль формата : Advanced Simple@L5
Параметр BVOP формата : 2
Параметр QPel формата : Нет
Параметр GMC формата : Без точки перехода
Параметр матрицы формата : Default (H.263)
Режим смешивания : Сжатый битовый поток
Идентификатор кодека : XVID
Идентификатор кодека/Подсказка : XviD
Продолжительность : 1 ч. 37 м.
Битрейт : 2099 Кбит/сек
Ширина : 720 пикселей
Высота : 400 пикселей
Соотношение сторон : 16:9
Частота кадров : 23,976 кадра/сек
Цветовое пространство : YUV
Субдискретизация насыщенности : 4:2:0
Битовая глубина : 8 бит
Тип развёртки : Прогрессивная
Метод сжатия : С потерями
Бит/(Пиксели*Кадры) : 0.304
Размер потока : 1,43 Гбайт (91%)
Библиотека кодирования : XviD 1.2.1 (UTC 2008-12-04)

Аудио
Идентификатор : 1
Формат : MPEG Audio
Версия формата : Version 1
Профиль формата : Layer 3
Идентификатор кодека : 55
Идентификатор кодека/Подсказка : MP3
Продолжительность : 1 ч. 37 м.
Вид битрейта : Постоянный
Битрейт : 192 Кбит/сек
Каналы : 2 канала
Частота : 48,0 КГц
Метод сжатия : С потерями
Размер потока : 134 Мбайт (8%)
Выравнивание : Соединение по промежуткам
Продолжительность промежутка : 42 мс. (1,00 видеокадр)
Время предзагрузки промежутка : 504 мс.
Библиотека кодирования : LAME3.99r
Настройки программы : -m s -V 4 -q 2 -lowpass 18.6 -b 192

Релиз от: R.G.RealMT



   Похожие торренты   Торрент   Размер 
В этой теме нет новых непрочитанных сообщений. Синдром Титаника / Le syndrome du Titanic (2009) BDRip от Filmoff CLUB

1 | 4

1.37 ГБ

В этой теме нет новых непрочитанных сообщений. Легенда Титаника / La leggenda del Titanic / The legend of the Titanic (1999) DVDRip | P

94 | 22

1.37 ГБ

В этой теме нет новых непрочитанных сообщений. Синдром Франкенштейна / The Frankenstein Syndrome (2010) HDRip

2 | 1

1.34 ГБ

В этой теме нет новых непрочитанных сообщений. Бермудский синдром / Bermuda Syndrome (1995) PC | Rip

1 | 2

128.14 МБ

В этой теме нет новых непрочитанных сообщений. Синдром Франкенштейна / The Frankenstein Syndrome (2010) DVDRip

18 | 3

1.38 ГБ

В этой теме нет новых непрочитанных сообщений. Синдром Франкенштейна / The Frankenstein Syndrome (2010) DVDRip

1 | 2

650.51 МБ

В этой теме нет новых непрочитанных сообщений. Китайский синдром / The China Syndrome (1979) BDRip 1080p | D, P

0 | 2

12.25 ГБ




Вы не можете начинать темы
Вы не можете отвечать на сообщения
Вы не можете редактировать свои сообщения
Вы не можете удалять свои сообщения
Вы не можете добавлять вложения

Перейти:  
Для Мосгорсуда, Роскомнадзора и рекламодателей: mosgorsud-torrent[собачка]yandex.ru
 Вход
ppkBB3cker v.2 © 2008-2014 @ PPK
[ Time : 0.086s | 14 Queries | GZIP : Off ]

Торрент трекер RUTOR.IN, Не можете зайти на rutor.org? Какой новый адрес рутор? Какое зеркало рутор? Не работает rutor.org и зеркала? Тогда наш торрент специально для вас. Rutor.in неофициальное зеркало rutor. В случае если у Вас заблокирован rutor или вдруг Вы не можете на него зайти, то Вы без труда сможете скачать бесплатно и без рекламы последние новинки кино, игр, сериалов и прочего у нас, на Rutor.in. Не нужно использовать прокси, чтобы зайти на рутор, достаточно воспользоваться нашим ресурсом. Все новые фильмы, игры, сериалы, книги и музыка за 2013 и 2014 годы через торрент бесплатно. Скачивайте фильмы в хорошем качестве, игры для пк, xbox, playstation без регистрации. У нас вы найдете новые Зарубежные сериалы и Русские сериалы 2013, 2014, 2015 годов. Оставайтесь с нами, качайте любимые фильмы, игры, сериалы, книги и музыку.