img image001 image001 image001 image001 image001 image001 image001 image001 image001 image001 image001 image001 image001 image001 image001

Planets Sun Sun Sun
Статистика раздачи
Автор: Снежана | Размер: 1.6 ГБ | Добавлен: 25 июл 2013
Раздают: 8    Качают: 5
Скачать торрент
Скачать торрент
Описание торрента

СообщениеДобавлено: 25 июл 2013 

#77

Страна: США
Жанр: Документальный
Год выпуска: 2007
Продолжительность: 1:39:23
Перевод: Одноголосый закадровый

Режиссер: Майкл Мур / Michael Moore

В ролях: Майкл Мур и его друзья

Описание: Турне Майкла Мура по 60 кампусам колледжей Америки с целью обнаружить и продемонстрировать, как говорит режиссер, «рождение нового политического поколения».
Однажды, уже проиграв битву-призыв «бездельников» к голосованию за Джона Керри — и, что ещё более важно, против Джорджа Буша — на президентских выборах в США в 2004 году, режиссёр по-прежнему, во что бы то ни стало, желает сменить политический строй в стране. И, как считает Майкл Мур, в этой агит-войне, все средства хороши.



Качество: WEB-DLRip
Формат:AVI
Видео кодек: XviD
Аудио кодек: MP3
Видео: 16:9, 2100 Кбит/сек, 720x400, 23,976 кадра/сек
Аудио: MP3, 2 канала, 192 Кбит/сек, 48,0 КГц



Общее
Полное имя : D:Slacker Uprising (2007).avi
Формат : AVI
Формат/Информация : Audio Video Interleave
Размер файла : 1,60 Гбайт
Продолжительность : 1 ч. 39 м.
Общий поток : 2301 Кбит/сек
Программа кодирования : VirtualDubMod 1.5.10.3 | www.virtualdub-fr.org || (build 2550/release)
Библиотека кодирования : VirtualDubMod build 2550/release

Видео
Идентификатор : 0
Формат : MPEG-4 Visual
Профиль формата : Advanced Simple@L5
Параметр BVOP формата : 2
Параметр QPel формата : Нет
Параметр GMC формата : Без точки перехода
Параметр матрицы формата : Default (H.263)
Режим смешивания : Сжатый битовый поток
Идентификатор кодека : XVID
Идентификатор кодека/Подсказка : XviD
Продолжительность : 1 ч. 39 м.
Битрейт : 2100 Кбит/сек
Ширина : 720 пикселей
Высота : 400 пикселей
Соотношение сторон : 16:9
Частота кадров : 23,976 кадра/сек
Цветовое пространство : YUV
Субдискретизация насыщенности : 4:2:0
Битовая глубина : 8 бит
Тип развёртки : Прогрессивная
Метод сжатия : С потерями
Бит/(Пиксели*Кадры) : 0.304
Размер потока : 1,46 Гбайт (91%)
Библиотека кодирования : XviD 1.2.1 (UTC 2008-12-04)

Аудио
Идентификатор : 1
Формат : MPEG Audio
Версия формата : Version 1
Профиль формата : Layer 3
Идентификатор кодека : 55
Идентификатор кодека/Подсказка : MP3
Продолжительность : 1 ч. 39 м.
Вид битрейта : Постоянный
Битрейт : 192 Кбит/сек
Каналы : 2 канала
Частота : 48,0 КГц
Метод сжатия : С потерями
Размер потока : 136 Мбайт (8%)
Выравнивание : Соединение по промежуткам
Продолжительность промежутка : 42 мс. (1,00 видеокадр)
Время предзагрузки промежутка : 504 мс.
Библиотека кодирования : LAME3.99r
Настройки программы : -m s -V 4 -q 2 -lowpass 18.6 -b 192

Релиз от: R.G.RealMT



   Похожие торренты   Торрент   Размер 
В этой теме нет новых непрочитанных сообщений. Восстание / Uprising (2001) WEB-DLRip от Koenig | L1

21 | 0

2.18 ГБ

В этой теме нет новых непрочитанных сообщений. ТРОН: Восстание / TRON: Uprising [01х01-19] (2012) WEB-DLRip

8 | 3

5.71 ГБ

В этой теме нет новых непрочитанных сообщений. ТРОН: Восстание / TRON: Uprising [01х01-02 из ?] (2012) WEB-DLRip

0 | 2

513.21 МБ

В этой теме нет новых непрочитанных сообщений. ТРОН: Восстание / TRON: Uprising [01x01-19 из 19] (2012) WEB-DLRip 720p | L2

2 | 1

14.44 ГБ

В этой теме нет новых непрочитанных сообщений. ТРОН: Восстание / TRON: Uprising [S01] (2012) WEB-DLRip 720p от BenderBEST

2 | 7

9.85 ГБ

В этой теме нет новых непрочитанных сообщений. ТРОН: Восстание / TRON: Uprising [01х01-07 из 10] (2012) WEB-DLRip | AniPower

1 | 2

2.03 ГБ

В этой теме нет новых непрочитанных сообщений. ТРОН: Восстание / TRON: Uprising [01х01 из ?] (2012) WEB-DLRip | AniPower

0 | 2

410.42 МБ




Вы не можете начинать темы
Вы не можете отвечать на сообщения
Вы не можете редактировать свои сообщения
Вы не можете удалять свои сообщения
Вы не можете добавлять вложения

Перейти:  
Для Мосгорсуда, Роскомнадзора и рекламодателей: mosgorsud-torrent[собачка]yandex.ru
 Вход
ppkBB3cker v.2 © 2008-2014 @ PPK
[ Time : 1.140s | 14 Queries | GZIP : Off ]

Торрент трекер RUTOR.IN, Не можете зайти на rutor.org? Какой новый адрес рутор? Какое зеркало рутор? Не работает rutor.org и зеркала? Тогда наш торрент специально для вас. Rutor.in неофициальное зеркало rutor. В случае если у Вас заблокирован rutor или вдруг Вы не можете на него зайти, то Вы без труда сможете скачать бесплатно и без рекламы последние новинки кино, игр, сериалов и прочего у нас, на Rutor.in. Не нужно использовать прокси, чтобы зайти на рутор, достаточно воспользоваться нашим ресурсом. Все новые фильмы, игры, сериалы, книги и музыка за 2013 и 2014 годы через торрент бесплатно. Скачивайте фильмы в хорошем качестве, игры для пк, xbox, playstation без регистрации. У нас вы найдете новые Зарубежные сериалы и Русские сериалы 2013, 2014, 2015 годов. Оставайтесь с нами, качайте любимые фильмы, игры, сериалы, книги и музыку.