img image001 image001 image001 image001 image001 image001 image001 image001 image001 image001 image001 image001 image001 image001 image001

Planets Sun Sun Sun
Статистика раздачи
Автор: Снежана | Размер: 636.85 МБ | Добавлен: 25 июл 2013
Раздают: 5    Качают: 2
Скачать торрент
Скачать торрент
Описание торрента

СообщениеДобавлено: 25 июл 2013 

#77
Год выпуска: 2007
Страна: США
Жанр: Документальный, драма, семейный, биография
Продолжительность: 00:38:41
Перевод: Профессиональный (Одноголосый закадровый)

Режиссер: Кейт Мелтон / Keith Melton

В ролях: Элана Драго, Уильям Хоуп, Нассер Мемарзиа, Криспин Редмен, Дауд Шах, Борис Терраль, Brahim Boukhizzou, Bob Brier, Brahim Choukri, Angelique Corthals


Описание: Вы переноситесь в увлекательный и красивый мир древнего Египта. Это археологическое и научное приключение по следам исследователей и первооткрывателей, из рассказа которых складывается представление о культуре древнего Египта, о секретах мумий, о генетических находках.



Качество: HDRip
Формат:AVI
Видео кодек: XviD
Аудио кодек: MP3
Видео: 16:9, 2100 Кбит/сек, 720x400, 23,976 кадра/сек
Аудио: MP3, 2 канала, 192 Кбит/сек, 48,0 КГц



Общее
Полное имя : D:Mummies Secrets of the Pharaohs (2007).avi
Формат : AVI
Формат/Информация : Audio Video Interleave
Размер файла : 637 Мбайт
Продолжительность : 38 м.
Общий поток : 2301 Кбит/сек
Программа кодирования : VirtualDubMod 1.5.10.3 | www.virtualdub-fr.org || (build 2550/release)
Библиотека кодирования : VirtualDubMod build 2550/release

Видео
Идентификатор : 0
Формат : MPEG-4 Visual
Профиль формата : Advanced Simple@L5
Параметр BVOP формата : 2
Параметр QPel формата : Нет
Параметр GMC формата : Без точки перехода
Параметр матрицы формата : Default (H.263)
Режим смешивания : Сжатый битовый поток
Идентификатор кодека : XVID
Идентификатор кодека/Подсказка : XviD
Продолжительность : 38 м.
Битрейт : 2100 Кбит/сек
Ширина : 720 пикселей
Высота : 400 пикселей
Соотношение сторон : 16:9
Частота кадров : 23,976 кадра/сек
Цветовое пространство : YUV
Субдискретизация насыщенности : 4:2:0
Битовая глубина : 8 бит
Тип развёртки : Прогрессивная
Метод сжатия : С потерями
Бит/(Пиксели*Кадры) : 0.304
Размер потока : 581 Мбайт (91%)
Библиотека кодирования : XviD 1.2.1 (UTC 2008-12-04)

Аудио
Идентификатор : 1
Формат : MPEG Audio
Версия формата : Version 1
Профиль формата : Layer 3
Идентификатор кодека : 55
Идентификатор кодека/Подсказка : MP3
Продолжительность : 38 м.
Вид битрейта : Постоянный
Битрейт : 192 Кбит/сек
Каналы : 2 канала
Частота : 48,0 КГц
Метод сжатия : С потерями
Размер потока : 53,1 Мбайт (8%)
Выравнивание : Соединение по промежуткам
Продолжительность промежутка : 42 мс. (1,00 видеокадр)
Время предзагрузки промежутка : 504 мс.
Библиотека кодирования : LAME3.99r
Настройки программы : -m s -V 4 -q 2 -lowpass 18.6 -b 192

Релиз от: R.G.RealMT



   Похожие торренты   Торрент   Размер 
В этой теме нет новых непрочитанных сообщений. Мумии: Секреты фараонов / IMAX - Mummies: Secrets of the Pharaohs (2007) HDRip-AVC | P1

70 | 23

697.1 МБ

В этой теме нет новых непрочитанных сообщений. Мумии: Секреты фараонов / Mummies: Secrets of the Pharaohs (2007) BDRip 720p от ExKinoRay | IMAX

168 | 20

2.19 ГБ

В этой теме нет новых непрочитанных сообщений. Мумии: Секреты фараонов / IMAX - Mummies: Secrets of the Pharaohs (2007) BDRip 1080p | 3D-Video

26 | 4

4.36 ГБ

В этой теме нет новых непрочитанных сообщений. IMAX - Мумии: Секреты фараонов / IMAX - Mummies: Secrets of the Pharaohs (2007) BDRip от GeneralFilm

50 | 4

549.39 МБ

В этой теме нет новых непрочитанных сообщений. Мумии: Секреты фараонов / Mummies: Secret of the Pharaohs (2007) BDRip 720p | IMAX

0 | 2

2.36 ГБ

В этой теме нет новых непрочитанных сообщений. Мумии возвращаются / Ожившие мумии / Mummies alive [Полный 1 сезон] (1997) DVDRip

8 | 21

10.14 ГБ

В этой теме нет новых непрочитанных сообщений. Тутанхамончик: Битва фараонов / Тутенштейн: Битва фараонов / Tutenstein: Clash of the Pharaohs (2008) DVDRip от New-Team | P

106 | 13

745.04 МБ




Вы не можете начинать темы
Вы не можете отвечать на сообщения
Вы не можете редактировать свои сообщения
Вы не можете удалять свои сообщения
Вы не можете добавлять вложения

Перейти:  
Для Мосгорсуда, Роскомнадзора и рекламодателей: mosgorsud-torrent[собачка]yandex.ru
 Вход
ppkBB3cker v.2 © 2008-2014 @ PPK
[ Time : 0.024s | 14 Queries | GZIP : Off ]

Торрент трекер RUTOR.IN, Не можете зайти на rutor.org? Какой новый адрес рутор? Какое зеркало рутор? Не работает rutor.org и зеркала? Тогда наш торрент специально для вас. Rutor.in неофициальное зеркало rutor. В случае если у Вас заблокирован rutor или вдруг Вы не можете на него зайти, то Вы без труда сможете скачать бесплатно и без рекламы последние новинки кино, игр, сериалов и прочего у нас, на Rutor.in. Не нужно использовать прокси, чтобы зайти на рутор, достаточно воспользоваться нашим ресурсом. Все новые фильмы, игры, сериалы, книги и музыка за 2013 и 2014 годы через торрент бесплатно. Скачивайте фильмы в хорошем качестве, игры для пк, xbox, playstation без регистрации. У нас вы найдете новые Зарубежные сериалы и Русские сериалы 2013, 2014, 2015 годов. Оставайтесь с нами, качайте любимые фильмы, игры, сериалы, книги и музыку.