img image001 image001 image001 image001 image001 image001 image001 image001 image001 image001 image001 image001 image001 image001 image001

Planets Sun Sun Sun
Статистика раздачи
Автор: Снежана | Размер: 33.49 ГБ | Добавлен: 25 июл 2013
Раздают: 3    Качают: 2
Скачать торрент
Скачать торрент
Описание торрента

СообщениеДобавлено: 25 июл 2013 

Вселенная / The Universe [S03] (2008) BDRip 720p
Релиз от GYN

«Вековые тайны открываются»
Информация о фильме:
Название: Вселенная
Оригинальное название: The Universe
Год выхода: 2008
Жанр: Документальный, Фантастика, История
Режиссёр: Лаура Верклан / Laura Verklan, Колин Кэмпбелл / Colin Campbell, Тони Лонг / Tony Long
В ролях: Нил Тайсон, Джефф Марси, Роб Рой Бритт, Мишель Тэллер, Алекс Филиппенко, Лаура Дэнли, Уильям Хартманн, Эйми Мейнзер, Мичио Каку, Нэйт МакКрейди, Кевин Бэйнс, Джошуа Барнс, д-р Кевин Р. Грейзер
Сюжет фильма:
В этом сериале с помощью современной компьютерной графики и, основываясь на передовых исследованиях в области космоса, создатели фильма смогли воссоздать то, что происходит на других планетах, в других галактиках, вообразить какие формы жизни могли бы развиться в других атмосферах. Вы сможете увидеть космические бедствия, параллельные вселенные, скорость света и узнать многое другое о тайнах космоса.

Страна: США
Продолжительность: 12 x ~ 00:45:00
Перевод: Авторский (одноголосый, закадровый) Александр Дасевич
Субтитры: Русские
Информация о файле:
Качество: BDRip 720p
Файл: MKV
Кодек: MPEG-4 AVC, H264 codec
Видео: 1280 x 720, 16:9; 23.976 fps; ~ 8786 kbps; 0.39 bit/pixel
Аудио: 48 kHz, AC3 Dolby Digital, 2.0 ch, ~192.00 kbps avg
Размер файла: 12 x 2.79 Gb
Общий размер: 33.4 Gb
01. Deep Space Disasters / Космические катастрофы
02. Параллельные вселенные / Parallel Universes
03. Скорость света / Light Speed
04. Секс в пространстве / Sex in Space
05. Чужеродные лица / Alien Faces
06. Смертельные кометы и метеоры / Deadly Comets and Meteors
07. Жизнь в космосе / Living In Space
08. Остановить армагеддон / Stopping Armageddon
09. Другая Земля / Another Earth
10. Странные вещи / Strangest Things
11. На краю космоса / Edge of Space
12. Космические феномены / Cosmic Phenomena

General
Unique ID : 209032776365870308785077921465666102678 (0x9D423F92F51CA5F1AE36D5E7118BE596)
Complete name : F:The.Universe.2008.S03.RUS.BDRip.720p.h264.AC3.-GYNThe.Universe.2008.S03.Alien.Faces.mkv
Format : Matroska
Format version : Version 2
File size : 2.79 GiB
Duration : 44mn 29s
Overall bit rate mode : Variable
Overall bit rate : 8 980 Kbps
Movie name : Вселенная / The Universe (2008) [Season 3] Disk 2: Alien Faces
Encoded date : UTC 2013-02-15 16:07:33
Writing application : mkvmerge v5.7.0 ('The Whirlwind') built on Jul 8 2012 20:08:51
Writing library : libebml v1.2.3 + libmatroska v1.3.0
Video
ID : 1
Format : AVC
Format/Info : Advanced Video Codec
Format profile : High@L4.1
Format settings, CABAC : Yes
Format settings, ReFrames : 6 frames
Codec ID : V_MPEG4/ISO/AVC
Duration : 44mn 29s
Bit rate mode : Variable
Bit rate : 8 609 Kbps
Maximum bit rate : 8 786 Kbps
Width : 1 280 pixels
Height : 720 pixels
Display aspect ratio : 16:9
Frame rate : 23.976 fps
Color space : YUV
Chroma subsampling : 4:2:0
Bit depth : 8 bits
Scan type : Progressive
Bits/(Pixel*Frame) : 0.390
Stream size : 2.68 GiB (96%)
Title : Encoded by GYN
Default : Yes
Forced : No
Audio
ID : 2
Format : AC-3
Format/Info : Audio Coding 3
Format profile : Dolby Digital
Mode extension : CM (complete main)
Codec ID : A_AC3
Duration : 44mn 29s
Bit rate mode : Constant
Bit rate : 192 Kbps
Channel(s) : 2 channels
Channel positions : Front: L R
Sampling rate : 48.0 KHz
Bit depth : 16 bits
Compression mode : Lossy
Stream size : 61.1 MiB (2%)
Title : Одноголосый закадровый, А.Дасевич
Language : Russian
Default : Yes
Forced : No
Text
ID : 3
Format : UTF-8
Codec ID : S_TEXT/UTF8
Codec ID/Info : UTF-8 Plain Text
Language : Russian
Default : No
Forced : No
Menu
00:00:00.000 : en:Chapter 00
00:01:33.259 : en:Chapter 01
00:13:53.541 : en:Chapter 02
00:22:36.688 : en:Chapter 03
00:28:46.224 : en:Chapter 04
00:38:10.621 : en:Chapter 05
Авторский одноголосый (текст читает Александр Дасевич)
Перевод и озвучивание осуществлены в рамках сервиса "Озвучивание". Спонсоры: levanevski, HPotter, LibrarianA, ork2010, gelom, Turko, Nefrite, norvk, alvane, Acoustic, burdyuk, Cheetah, XIOPS, khapev2, yarik1984, CtrlSoft, Trottor, Cheetah, DeTorquemada, Кириллка, Armless

ПРИЯТНОГО ПРОСМОТРА!



   Похожие торренты   Торрент   Размер 
В этой теме нет новых непрочитанных сообщений. Вселенная / The Universe [S02] (2007-2008) BDRip 720p от GYN | А

5 | 4

50.09 ГБ

В этой теме нет новых непрочитанных сообщений. Вселенная / The Universe [S03] (2008) BDRip | A

5 | 4

7.85 ГБ

В этой теме нет новых непрочитанных сообщений. Вселенная / The Universe [S03] (2008) BDRip 1080p | P1

35 | 23

34.61 ГБ

В этой теме нет новых непрочитанных сообщений. Вселенная / The Universe [S03] (2008) BDRip 1080p | A

0 | 2

38.81 ГБ

В этой теме нет новых непрочитанных сообщений. Вселенная / The Universe [S01] (2007) BDRip 720p от GYN

1 | 4

41.74 ГБ

В этой теме нет новых непрочитанных сообщений. Вселенная / The Universe [s01] (2007) BDRip 720p

6 | 4

21.44 ГБ

В этой теме нет новых непрочитанных сообщений. Вселенная / The Universe [S03] (2008) Blu-Ray 1080p | A

0 | 3

112.62 ГБ




Вы не можете начинать темы
Вы не можете отвечать на сообщения
Вы не можете редактировать свои сообщения
Вы не можете удалять свои сообщения
Вы не можете добавлять вложения

Перейти:  
Для Мосгорсуда, Роскомнадзора и рекламодателей: mosgorsud-torrent[собачка]yandex.ru
 Вход
ppkBB3cker v.2 © 2008-2014 @ PPK
[ Time : 0.024s | 14 Queries | GZIP : Off ]

Торрент трекер RUTOR.IN, Не можете зайти на rutor.org? Какой новый адрес рутор? Какое зеркало рутор? Не работает rutor.org и зеркала? Тогда наш торрент специально для вас. Rutor.in неофициальное зеркало rutor. В случае если у Вас заблокирован rutor или вдруг Вы не можете на него зайти, то Вы без труда сможете скачать бесплатно и без рекламы последние новинки кино, игр, сериалов и прочего у нас, на Rutor.in. Не нужно использовать прокси, чтобы зайти на рутор, достаточно воспользоваться нашим ресурсом. Все новые фильмы, игры, сериалы, книги и музыка за 2013 и 2014 годы через торрент бесплатно. Скачивайте фильмы в хорошем качестве, игры для пк, xbox, playstation без регистрации. У нас вы найдете новые Зарубежные сериалы и Русские сериалы 2013, 2014, 2015 годов. Оставайтесь с нами, качайте любимые фильмы, игры, сериалы, книги и музыку.