img image001 image001 image001 image001 image001 image001 image001 image001 image001 image001 image001 image001 image001 image001 image001

Planets Sun Sun Sun
Статистика раздачи
Автор: Снежана | Размер: 527.79 МБ | Добавлен: 25 июл 2013
Раздают: 14    Качают: 3
Скачать торрент
Скачать торрент
Описание торрента

СообщениеДобавлено: 25 июл 2013 

#77

Информация о фильме
Название:Один в океане
Год выхода: 2012
Жанр: Документальный
Режиссер: Алексей Литвинцев

О фильме:
Декабрь 1974 года. В ленты мировых информагентств попадает сенсационная новость: "Побег из СССР. Гражданин Советского Союза бросился в Тихий океан с борта лайнера". В сообщении утверждается, что беглец преодолел в открытом океане около ста километров и самостоятельно вышел на филиппинский берег! О беглеце сообщает "Голос Америки" - знаменитая радиостанция, которую на всей территории СССР руководство партии упорно глушит, а население упорно слушает.
Герой одного из самых громких политических событий эпохи застоя, которое долгое время замалчивалось в Советском Союзе - Слава Курилов (1936 - 1998), совершивший в 1974 году побег с борта лайнера "Советский Союз", следовавшего из порта Владивостока. Без еды и питья, не имея морского снаряжения, Слава Курилов плыл в открытом океане почти трое суток. Он остался жив, выбравшись на берег филиппинского острова Сиаргао, после чего в Советском Союзе был объявлен государственным преступником, а на Западе прожил долгую плодотворную жизнь, работая океанологом...

Страна: Россия
Студия: ВГТРК
Продолжительность: 43:22
Перевод: Не требуется

Файл
Кодек: DivX
Качество: SATRip
Видео: AVI , 1548 Kbps, 704x384, 25.000 fps
Звук: MP3, 128 Kbps, 44.1 Hz, 2 ch

General
Complete name : C:UsersUserDesktopOdin.v.okeane.(2012).SATRip.avi
Format : AVI
Format/Info : Audio Video Interleave
File size : 528 MiB
Duration : 43mn 46s
Overall bit rate : 1 686 Kbps
Writing library : VirtualDub build 24442/release

Video
ID : 0
Format : MPEG-4 Visual
Format settings, BVOP : 1
Format settings, QPel : No
Format settings, GMC : No warppoints
Format settings, Matrix : Default (H.263)
Muxing mode : Packed bitstream
Codec ID : DX50
Codec ID/Hint : DivX 5
Duration : 43mn 46s
Bit rate : 1 548 Kbps
Width : 704 pixels
Height : 384 pixels
Display aspect ratio : 1.85:1
Frame rate : 25.000 fps
Color space : YUV
Chroma subsampling : 4:2:0
Bit depth : 8 bits
Scan type : Progressive
Compression mode : Lossy
Bits/(Pixel*Frame) : 0.229
Stream size : 485 MiB (92%)
Writing library : DivX 3013

Audio
ID : 1
Format : MPEG Audio
Format version : Version 1
Format profile : Layer 3
Codec ID : 55
Codec ID/Hint : MP3
Duration : 43mn 46s
Bit rate mode : Constant
Bit rate : 128 Kbps
Channel(s) : 2 channels
Sampling rate : 44.1 KHz
Compression mode : Lossy
Delay relative to video : 8ms
Stream size : 40.1 MiB (8%)
Alignment : Split accross interleaves
Interleave, duration : 40 ms (1.00 video frame)
Interleave, preload duration : 500 ms





Релиз от: bvsbns



   Похожие торренты   Торрент   Размер 
В этой теме нет новых непрочитанных сообщений. Майкл Джордан. Интервью. Один на Один с Ахмад Рашадом (2013) SATRip

0 | 3

587.78 МБ

В этой теме нет новых непрочитанных сообщений. След в океане (1964) SATRip от Youtracker

25 | 13

1.46 ГБ

В этой теме нет новых непрочитанных сообщений. След в океане (1964) SATRip от Youtracker

3 | 4

744.88 МБ

В этой теме нет новых непрочитанных сообщений. След в океане (1964) SATRip-AVC от Youtracker

12 | 6

1.46 ГБ

В этой теме нет новых непрочитанных сообщений. Заставы в океане. Возвращение (2014) SATRip

180 | 26

628.3 МБ

В этой теме нет новых непрочитанных сообщений. Один в один. Финал. Часть 02 [26.05] (2013) SATRip

65 | 6

1.27 ГБ

В этой теме нет новых непрочитанных сообщений. Один в один. Финал. Часть 01 [26.05] (2013) SATRip

66 | 5

1.2 ГБ




Вы не можете начинать темы
Вы не можете отвечать на сообщения
Вы не можете редактировать свои сообщения
Вы не можете удалять свои сообщения
Вы не можете добавлять вложения

Перейти:  
Для Мосгорсуда, Роскомнадзора и рекламодателей: mosgorsud-torrent[собачка]yandex.ru
 Вход
ppkBB3cker v.2 © 2008-2014 @ PPK
[ Time : 0.031s | 14 Queries | GZIP : On ]

Торрент трекер RUTOR.IN, Не можете зайти на rutor.org? Какой новый адрес рутор? Какое зеркало рутор? Не работает rutor.org и зеркала? Тогда наш торрент специально для вас. Rutor.in неофициальное зеркало rutor. В случае если у Вас заблокирован rutor или вдруг Вы не можете на него зайти, то Вы без труда сможете скачать бесплатно и без рекламы последние новинки кино, игр, сериалов и прочего у нас, на Rutor.in. Не нужно использовать прокси, чтобы зайти на рутор, достаточно воспользоваться нашим ресурсом. Все новые фильмы, игры, сериалы, книги и музыка за 2013 и 2014 годы через торрент бесплатно. Скачивайте фильмы в хорошем качестве, игры для пк, xbox, playstation без регистрации. У нас вы найдете новые Зарубежные сериалы и Русские сериалы 2013, 2014, 2015 годов. Оставайтесь с нами, качайте любимые фильмы, игры, сериалы, книги и музыку.