img image001 image001 image001 image001 image001 image001 image001 image001 image001 image001 image001 image001 image001 image001 image001

Planets Sun Sun Sun
Статистика раздачи
Автор: Снежана | Размер: 819.95 МБ | Добавлен: 24 июл 2013
Раздают: 13    Качают: 7
Скачать торрент
Скачать торрент
Описание торрента

СообщениеДобавлено: 24 июл 2013 

Сурикаты

The Meerkats

«Такой есть в каждой семье»


#77

Год выпуска: 2008
Страна: Великобритания
Жанр: документальный
Продолжительность: 1:23:11
Перевод: Профессиональный (дублированный) Кипарис
Оригинальная аудиодорожка: английский
Субтитры: нет

Режиссер: Джеймс Хонейборн / James Honeyborne

Описание: На земле, обладающей волшебной красотой, где правила диктуют сильнейшие, маленькие создания построили свои дома. Для одного из молодых сурикатов приключения только начинаются. Он научится защищаться и поймет, что великая сила заключена в сплоченности и взаимовыручке.



Качество: BDRip [Blu-Ray 1080p]
Формат: AVI

Видео: XviD, 720x304 (2.35:1), 23.976 fps, 1 113 Kbps, 0.212 Bits/(Pixel*Frame)
Аудио 1: MP3, 48 KHz, 128 Kbps, 2 channels | русский
Аудио 2: MP3, 48 KHz, 128 Kbps, 2 channels | английский отдельно

Раздача от:
General
Complete name : D:Surikaty.2008.BDRip.XviD.mp3.745mb.YTN.avi
Format : AVI
Format/Info : Audio Video Interleave
File size : 744 MiB
Duration : 1h 23mn
Overall bit rate : 1 250 Kbps
Writing application : VirtualDubMod 1.5.10.2 (build 2540/release)
Writing library : VirtualDubMod build 2540/release

Video
ID : 0
Format : MPEG-4 Visual
Format profile : Advanced Simple@L5
Format settings, BVOP : 1
Format settings, QPel : No
Format settings, GMC : No warppoints
Format settings, Matrix : Custom
Codec ID : XVID
Codec ID/Hint : XviD
Duration : 1h 23mn
Bit rate : 1 113 Kbps
Width : 720 pixels
Height : 304 pixels
Display aspect ratio : 2.35:1
Frame rate : 23.976 fps
Color space : YUV
Chroma subsampling : 4:2:0
Bit depth : 8 bits
Scan type : Progressive
Compression mode : Lossy
Bits/(Pixel*Frame) : 0.212
Stream size : 662 MiB (89%)
Writing library : XviD 65

Audio
ID : 1
Format : MPEG Audio
Format version : Version 1
Format profile : Layer 3
Mode : Joint stereo
Codec ID : 55
Codec ID/Hint : MP3
Duration : 1h 23mn
Bit rate mode : Constant
Bit rate : 128 Kbps
Channel(s) : 2 channels
Sampling rate : 48.0 KHz
Compression mode : Lossy
Stream size : 76.2 MiB (10%)
Alignment : Aligned on interleaves
Interleave, duration : 42 ms (1.00 video frame)
Interleave, preload duration : 504 ms




   Похожие торренты   Торрент   Размер 
В этой теме нет новых непрочитанных сообщений. Сурикаты / The Meerkats (2008) BDRip от HELLYWOOD

6 | 1

1.46 ГБ

В этой теме нет новых непрочитанных сообщений. Сурикаты / The Meerkats (2008) BDRip от HQ-ViDEO

13 | 9

1.72 ГБ

В этой теме нет новых непрочитанных сообщений. Сурикаты / The Meerkats (2008) BDRip 720p от HDClub

22 | 2

4.74 ГБ

В этой теме нет новых непрочитанных сообщений. Сурикаты / The Meerkats (2008) BDRip 720p от NOLIMITS-TEAM

8 | 5

2.18 ГБ

В этой теме нет новых непрочитанных сообщений. Сурикаты / The Meerkats (2008) DVDRip от ExKinoRay

3 | 2

1.37 ГБ

В этой теме нет новых непрочитанных сообщений. Сурикаты: Дикие приключения в пустыне Калахари / The Meerkats Gang: Wild Adventures in the Kalahari Desert (2012) BDRip 1080р | 3D-Video

1 | 2

5.33 ГБ

В этой теме нет новых непрочитанных сообщений. BBC: Наедине с природой: Скандальные сурикаты / BBC: MEERKATS Divided [36 из 67] (2004) SATRip от ExKinoRay

5 | 1

497.51 МБ




Вы не можете начинать темы
Вы не можете отвечать на сообщения
Вы не можете редактировать свои сообщения
Вы не можете удалять свои сообщения
Вы не можете добавлять вложения

Перейти:  
Для Мосгорсуда, Роскомнадзора и рекламодателей: mosgorsud-torrent[собачка]yandex.ru
 Вход
ppkBB3cker v.2 © 2008-2014 @ PPK
[ Time : 0.060s | 17 Queries | GZIP : Off ]

cron